Hämatom – Bestie Der Freiheit




No Cover available

Artist: Hämatom
Year: 2018
Genre: Rock
Notes: Discogs
Add. Notes:
Watch Songs on: YouTube
Cover incl.: Yes
Encoder: FLAC
Bitrate: ~1000 kBit/s (44.1 kHz/16 Bit/s)
Log & Cue incl.: Yes
Size: 809,44 MB
Password: “slam” (without ” “)


All Downloads/Hosters are compatible

Download 1
KatFile.com
Turbobit.net
FileFactory.com
Rapidgator.net
Download 2
KatFile.com
Turbobit.net
FileFactory.com
Rapidgator.net

Tracklist:

1. Zeit Für Neue Hymnen. 
2. Mein Leben - Meine Regeln. 
3. Warum Kann Ich Nicht Glücklich Sein. 
4. Mörder. 
5. Lichterloh. 
6. Ich Hasse Dich Zu Lieben. 
7. Lange Nicht Perfekt. 
8. Zur Hölle Mit Eurem Himmel. 
9. Lauter. 
10. Unter Strom. 
11. Bis Zum Letzten Atemzug. 
12. Wehleidige Monster. 
13. Todesmarsch

EAC-Log, CUE-Sheed & NFO:

Click to open spoiler
Exact Audio Copy V1.1 from 23. June 2015

EAC extraction logfile from 25. January 2018, 16:27

Hamatom / Bestie Der Freiheit (Freak Box Edition)

Used drive : HP DVD Writer 1170d Adapter: 1 ID: 1

Read mode : Secure
Utilize accurate stream : Yes
Defeat audio cache : Yes
Make use of C2 pointers : No

Read offset correction : 6
Overread into Lead-In and Lead-Out : No
Fill up missing offset samples with silence : Yes
Delete leading and trailing silent blocks : No
Null samples used in CRC calculations : Yes
Used interface : Native Win32 interface for Win NT & 2000

Used output format : User Defined Encoder
Selected bitrate : 1024 kBit/s
Quality : High
Add ID3 tag : No
Command line compressor : C:\Program Files (x86)\Exact Audio Copy\Flac\flac.exe
Additional command line options : -V -8 -T “Date=%year%” -T “Genre=%genre%” %source%

TOC of the extracted CD

Track | Start | Length | Start sector | End sector
———————————————————
1 | 0:00.00 | 3:50.49 | 0 | 17298
2 | 3:50.49 | 3:16.51 | 17299 | 32049
3 | 7:07.25 | 3:33.08 | 32050 | 48032
4 | 10:40.33 | 3:10.49 | 48033 | 62331
5 | 13:51.07 | 3:47.54 | 62332 | 79410
6 | 17:38.61 | 3:55.40 | 79411 | 97075
7 | 21:34.26 | 3:23.14 | 97076 | 112314
8 | 24:57.40 | 3:29.22 | 112315 | 128011
9 | 28:26.62 | 3:47.00 | 128012 | 145036
10 | 32:13.62 | 3:26.00 | 145037 | 160486
11 | 35:39.62 | 3:33.16 | 160487 | 176477
12 | 39:13.03 | 2:52.65 | 176478 | 189442
13 | 42:05.68 | 3:16.51 | 189443 | 204193
14 | 45:22.44 | 3:12.13 | 204194 | 218606
15 | 48:34.57 | 3:14.04 | 218607 | 233160

Range status and errors

Selected range

Filename C:\EAC\ungern666\Hamatom – Bestie Der Freiheit (Freak Box Edition).wav

Peak level 98.8 %
Extraction speed 6.8 X
Range quality 99.9 %
Test CRC D1E65220
Copy CRC D1E65220
Copy OK

No errors occurred

AccurateRip summary

Track 1 not present in database
Track 2 not present in database
Track 3 not present in database
Track 4 not present in database
Track 5 not present in database
Track 6 not present in database
Track 7 not present in database
Track 8 not present in database
Track 9 not present in database
Track 10 not present in database
Track 11 not present in database
Track 12 not present in database
Track 13 not present in database
Track 14 not present in database
Track 15 not present in database

None of the tracks are present in the AccurateRip database

End of status report

—- CUETools DB Plugin V2.1.6

[CTDB TOCID: R1M5ndKgpYi58L1GIuINcWE37Og-] disk not present in database
Submit result: R1M5ndKgpYi58L1GIuINcWE37Og- has been uploaded

==== Log checksum B24898EA801964FD3A1C7226D94EE0698CC130985FF40C586ACF921EA8BB9603 ====

REM DATE 2018
REM DISCID CC0C240F
REM COMMENT “ExactAudioCopy v1.1”
PERFORMER “Hamatom”
TITLE “Bestie Der Freiheit (Freak Box Edition)”
FILE “Hamatom – Bestie Der Freiheit (Freak Box Edition).flac” WAVE
TRACK 01 AUDIO
TITLE “Zeit Fur Neue Hymnen”
PERFORMER “Hamatom”
INDEX 01 00:00:00
TRACK 02 AUDIO
TITLE “Mein Leben – Meine Regeln”
PERFORMER “Hamatom”
INDEX 00 03:49:43
INDEX 01 03:50:49
TRACK 03 AUDIO
TITLE “Warum Kann Ich Nicht Glucklich Sein?”
PERFORMER “Hamatom”
INDEX 00 07:05:69
INDEX 01 07:07:25
TRACK 04 AUDIO
TITLE “Morder”
PERFORMER “Hamatom”
INDEX 00 10:40:16
INDEX 01 10:40:33
TRACK 05 AUDIO
TITLE “Lichterloh”
PERFORMER “Hamatom”
INDEX 00 13:49:56
INDEX 01 13:51:07
TRACK 06 AUDIO
TITLE “Ich Hasse Dich Zu Lieben”
PERFORMER “Hamatom”
INDEX 00 17:37:70
INDEX 01 17:38:61
TRACK 07 AUDIO
TITLE “Lange Nicht Perfekt”
PERFORMER “Hamatom”
INDEX 00 21:33:37
INDEX 01 21:34:26
TRACK 08 AUDIO
TITLE “Zur Holle Mit Eurem Himmel”
PERFORMER “Hamatom”
INDEX 00 24:56:27
INDEX 01 24:57:40
TRACK 09 AUDIO
TITLE “Lauter”
PERFORMER “Hamatom”
INDEX 00 28:25:29
INDEX 01 28:26:62
TRACK 10 AUDIO
TITLE “Unter Strom”
PERFORMER “Hamatom”
INDEX 00 32:13:05
INDEX 01 32:13:62
TRACK 11 AUDIO
TITLE “Bis Zum Letzten Atemzug”
PERFORMER “Hamatom”
INDEX 00 35:38:16
INDEX 01 35:39:62
TRACK 12 AUDIO
TITLE “Wehleidige Monster”
PERFORMER “Hamatom”
INDEX 00 39:12:24
INDEX 01 39:13:03
TRACK 13 AUDIO
TITLE “Todesmarsch”
PERFORMER “Hamatom”
INDEX 00 42:03:51
INDEX 01 42:05:68
TRACK 14 AUDIO
TITLE “Schrei Nach Verschworung”
PERFORMER “Hamatom”
INDEX 00 45:22:36
INDEX 01 45:22:44
TRACK 15 AUDIO
TITLE “Bon Voyage”
PERFORMER “Hamatom”
INDEX 00 48:34:24
INDEX 01 48:34:57


Leave a Reply

Your email address will not be published. Required fields are marked *

This site uses Akismet to reduce spam. Learn how your comment data is processed.