Hämatom – X (Limited Freak Box)




Artist: Hämatom
Year: 2014
Genre: Rock
Notes: Discogs
Add. Notes:
Cover incl.: Yes
Encoder: FLAC
Bitrate: ~1100 kBit/s (44.1 kHz/16 Bit/s)
Log & Cue incl.: Yes
Size: 655,26 MB
Password: “slam” (without ” “)


All Downloads/Hosters are compatible

Download 1
Turbobit.net
Rapidgator.net
KatFile.com
UploadRar.com
Download 2
Turbobit.net
Rapidgator.net
KatFile.com
UploadRar.com
Download 3
Turbobit.net
Rapidgator.net
KatFile.com
UploadRar.com

Tracklist:

CD1-1 - Teufelsweib - 3:55
CD1-2 - Kids (2 Finger An Den Kopf) - 3:24
CD1-3 - Bilder Im Kopf - 3:53
CD1-4 - Blinde Fäuste - 2:59
CD1-5 - Geboren Um Zu Leben - 3:09
CD1-6 - Oh Johnny - 2:58
CD1-7 - Schwarz Zu Blau - 3:26
CD1-8 - Vom Selben Stern - 3:10
CD1-9 - Remmidemmi (Yippie Yippie Yeah) - 3:20
CD1-10 - Emanuela - 3:21
CD1-11 - Guten Tag - 3:37
CD2-1 - Leichen Pflastern Unsern Weg - 3:46
CD2-2 - Alte Liebe Rostet Nicht - 3:53
CD2-3 - Sturm - 3:34
CD2-4 - Eva - 3:41
CD2-5 - Leck Mich - 2:58
CD2-6 - Es Ist Nicht Alles Gold Was Glänzt - 3:18
CD2-7 - Seelenpiraten - 3:36
CD2-8 - Auge Um Auge - 3:37
CD2-9 - Man Muss Nicht Sterben, Um In Der Hölle Zu Sein - 4:00
CD2-10 - Ihr Kotzt Mich An - 4:01
CD2-11 - Totgesagt Doch Neugeboren - Teil 3 (Pianoversion) - 4:26

EAC-Log, CUE-Sheed & NFO:

Click to open spoiler
Exact Audio Copy V1.1 from 23. June 2015

EAC extraction logfile from 9. November 2016, 16:56

Hamatom / X CD 1

Used drive : HP DVD Writer 1170d Adapter: 1 ID: 1

Read mode : Secure
Utilize accurate stream : Yes
Defeat audio cache : Yes
Make use of C2 pointers : No

Read offset correction : 6
Overread into Lead-In and Lead-Out : No
Fill up missing offset samples with silence : Yes
Delete leading and trailing silent blocks : No
Null samples used in CRC calculations : Yes
Used interface : Native Win32 interface for Win NT & 2000

Used output format : User Defined Encoder
Selected bitrate : 1024 kBit/s
Quality : Low
Add ID3 tag : No
Command line compressor : C:\Program Files (x86)\Exact Audio Copy\FLAC\FLAC.EXE
Additional command line options : -V -8 -T “Date=%year%” -T “Genre=%genre%” -T”COMMENT=Ripped by Ungern666″ -8 -V %source%

TOC of the extracted CD

Track | Start | Length | Start sector | End sector
———————————————————
1 | 0:00.00 | 3:54.56 | 0 | 17605
2 | 3:54.56 | 3:24.08 | 17606 | 32913
3 | 7:18.64 | 3:52.56 | 32914 | 50369
4 | 11:11.45 | 2:58.73 | 50370 | 63792
5 | 14:10.43 | 3:09.10 | 63793 | 77977
6 | 17:19.53 | 2:58.25 | 77978 | 91352
7 | 20:18.03 | 3:25.62 | 91353 | 106789
8 | 23:43.65 | 3:10.26 | 106790 | 121065
9 | 26:54.16 | 3:20.18 | 121066 | 136083
10 | 30:14.34 | 3:20.42 | 136084 | 151125
11 | 33:35.01 | 3:36.59 | 151126 | 167384

Range status and errors

Selected range

Filename C:\EAC\Ungern666\Hamatom – X CD 1.wav

Peak level 99.1 %
Extraction speed 5.2 X
Range quality 100.0 %
Test CRC E4C08F56
Copy CRC E4C08F56
Copy OK

No errors occurred

AccurateRip summary

Track 1 accurately ripped (confidence 6) [332F9C69] (AR v2)
Track 2 accurately ripped (confidence 6) [E7C33A9F] (AR v2)
Track 3 accurately ripped (confidence 6) [AE1F1F25] (AR v2)
Track 4 accurately ripped (confidence 6) [D172B60E] (AR v2)
Track 5 accurately ripped (confidence 6) [DF44ABB1] (AR v2)
Track 6 accurately ripped (confidence 6) [1A2078B8] (AR v2)
Track 7 accurately ripped (confidence 6) [6B579983] (AR v2)
Track 8 accurately ripped (confidence 6) [3FCDBE16] (AR v2)
Track 9 accurately ripped (confidence 6) [05D06962] (AR v2)
Track 10 accurately ripped (confidence 6) [30592F7D] (AR v2)
Track 11 accurately ripped (confidence 6) [1970D211] (AR v2)

All tracks accurately ripped

End of status report

—- CUETools DB Plugin V2.1.6

[CTDB TOCID: V3rnctJGO6YDYY.ZGB.A33LPWww-] found
Submit result: V3rnctJGO6YDYY.ZGB.A33LPWww- has been confirmed
Track | CTDB Status
1 | (35/35) Accurately ripped
2 | (35/35) Accurately ripped
3 | (35/35) Accurately ripped
4 | (35/35) Accurately ripped
5 | (35/35) Accurately ripped
6 | (35/35) Accurately ripped
7 | (35/35) Accurately ripped
8 | (35/35) Accurately ripped
9 | (35/35) Accurately ripped
10 | (35/35) Accurately ripped
11 | (35/35) Accurately ripped

==== Log checksum 4D86D71F0533D3D79870F395C8AA4CBB68F56E707FEB22B5167C02CB957CFE4C ====

Exact Audio Copy V1.1 from 23. June 2015

EAC extraction logfile from 9. November 2016, 17:15

Hamatom / X CD 2

Used drive : HP DVD Writer 1170d Adapter: 1 ID: 1

Read mode : Secure
Utilize accurate stream : Yes
Defeat audio cache : Yes
Make use of C2 pointers : No

Read offset correction : 6
Overread into Lead-In and Lead-Out : No
Fill up missing offset samples with silence : Yes
Delete leading and trailing silent blocks : No
Null samples used in CRC calculations : Yes
Used interface : Native Win32 interface for Win NT & 2000

Used output format : User Defined Encoder
Selected bitrate : 1024 kBit/s
Quality : Low
Add ID3 tag : No
Command line compressor : C:\Program Files (x86)\Exact Audio Copy\FLAC\FLAC.EXE
Additional command line options : -V -8 -T “Date=%year%” -T “Genre=%genre%” -T”COMMENT=Ripped by Ungern666″ -8 -V %source%

TOC of the extracted CD

Track | Start | Length | Start sector | End sector
———————————————————
1 | 0:00.00 | 3:45.66 | 0 | 16940
2 | 3:45.66 | 3:53.12 | 16941 | 34427
3 | 7:39.03 | 3:34.37 | 34428 | 50514
4 | 11:13.40 | 3:41.11 | 50515 | 67100
5 | 14:54.51 | 2:58.21 | 67101 | 80471
6 | 17:52.72 | 3:17.50 | 80472 | 95296
7 | 21:10.47 | 3:36.23 | 95297 | 111519
8 | 24:46.70 | 3:37.08 | 111520 | 127802
9 | 28:24.03 | 3:59.47 | 127803 | 145774
10 | 32:23.50 | 4:01.26 | 145775 | 163875
11 | 36:25.01 | 4:25.48 | 163876 | 183798

Range status and errors

Selected range

Filename C:\EAC\Ungern666\Hamatom – X CD 2.wav

Peak level 99.1 %
Extraction speed 5.4 X
Range quality 100.0 %
Test CRC AF58288D
Copy CRC AF58288D
Copy OK

No errors occurred

AccurateRip summary

Track 1 accurately ripped (confidence 6) [01F70F0B] (AR v2)
Track 2 accurately ripped (confidence 6) [C1466BA6] (AR v2)
Track 3 accurately ripped (confidence 6) [AE6043D3] (AR v2)
Track 4 accurately ripped (confidence 6) [1576015C] (AR v2)
Track 5 accurately ripped (confidence 6) [C64DCD20] (AR v2)
Track 6 accurately ripped (confidence 6) [5F9AE8F6] (AR v2)
Track 7 accurately ripped (confidence 6) [80F68CE4] (AR v2)
Track 8 accurately ripped (confidence 6) [F6E5CB93] (AR v2)
Track 9 accurately ripped (confidence 6) [1CE15E01] (AR v2)
Track 10 accurately ripped (confidence 6) [88D6782C] (AR v2)
Track 11 accurately ripped (confidence 6) [921B0772] (AR v2)

All tracks accurately ripped

End of status report

—- CUETools DB Plugin V2.1.6

[CTDB TOCID: 4nRElYq1lTJo0LdKvbG.YWOJv.M-] found
Submit result: 4nRElYq1lTJo0LdKvbG.YWOJv.M- has been confirmed
Track | CTDB Status
1 | (34/34) Accurately ripped
2 | (34/34) Accurately ripped
3 | (34/34) Accurately ripped
4 | (34/34) Accurately ripped
5 | (34/34) Accurately ripped
6 | (34/34) Accurately ripped
7 | (34/34) Accurately ripped
8 | (34/34) Accurately ripped
9 | (34/34) Accurately ripped
10 | (34/34) Accurately ripped
11 | (34/34) Accurately ripped

==== Log checksum 9594CA25F4D280168598FFB1E7C3629D4A1B1A944739B1487FF6A2086F509FA7 ====

REM DATE 2014
REM DISCID 7308B70B
REM COMMENT “ExactAudioCopy v1.1”
PERFORMER “Hamatom”
TITLE “X CD 1”
FILE “Hamatom – X CD 1.flac” WAVE
TRACK 01 AUDIO
TITLE “Teufelsweib”
PERFORMER “Hamatom”
FLAGS DCP
INDEX 01 00:00:00
TRACK 02 AUDIO
TITLE “Kids (2 Finger An Den Kopf)”
PERFORMER “Hamatom”
FLAGS DCP
INDEX 01 03:54:56
TRACK 03 AUDIO
TITLE “Bilder Im Kopf”
PERFORMER “Hamatom”
FLAGS DCP
INDEX 01 07:18:64
TRACK 04 AUDIO
TITLE “Blinde Fauste”
PERFORMER “Hamatom”
FLAGS DCP
INDEX 01 11:11:45
TRACK 05 AUDIO
TITLE “Geboren Um Zu Leben”
PERFORMER “Hamatom”
FLAGS DCP
INDEX 01 14:10:43
TRACK 06 AUDIO
TITLE “Oh Jonny”
PERFORMER “Hamatom”
FLAGS DCP
INDEX 01 17:19:53
TRACK 07 AUDIO
TITLE “Schwarz Zu Blau”
PERFORMER “Hamatom”
FLAGS DCP
INDEX 01 20:18:03
TRACK 08 AUDIO
TITLE “Vom Selben Stern”
PERFORMER “Hamatom”
FLAGS DCP
INDEX 01 23:43:65
TRACK 09 AUDIO
TITLE “Remmidemmi (Yippie Yippie Yeah)”
PERFORMER “Hamatom”
FLAGS DCP
INDEX 01 26:54:16
TRACK 10 AUDIO
TITLE “Emanuela”
PERFORMER “Hamatom”
FLAGS DCP
INDEX 01 30:14:34
TRACK 11 AUDIO
TITLE “Guten Tag”
PERFORMER “Hamatom”
FLAGS DCP
INDEX 01 33:35:01

REM DATE 2014
REM DISCID A109920B
REM COMMENT “ExactAudioCopy v1.1”
PERFORMER “Hamatom”
TITLE “X CD 2”
FILE “Hamatom – X CD 2.flac” WAVE
TRACK 01 AUDIO
TITLE “Leichen Pflastern Unsern Weg”
PERFORMER “Hamatom”
FLAGS DCP
INDEX 01 00:00:00
TRACK 02 AUDIO
TITLE “Alte Liebe Rostet Nicht”
PERFORMER “Hamatom”
FLAGS DCP
INDEX 01 03:45:66
TRACK 03 AUDIO
TITLE “Sturm”
PERFORMER “Hamatom”
FLAGS DCP
INDEX 01 07:39:03
TRACK 04 AUDIO
TITLE “Eva”
PERFORMER “Hamatom”
FLAGS DCP
INDEX 01 11:13:40
TRACK 05 AUDIO
TITLE “Leck Mich”
PERFORMER “Hamatom”
FLAGS DCP
INDEX 01 14:54:51
TRACK 06 AUDIO
TITLE “Es Ist Nicht Alles Gold Was Glanzt”
PERFORMER “Hamatom”
FLAGS DCP
INDEX 01 17:52:72
TRACK 07 AUDIO
TITLE “Seelenpiraten”
PERFORMER “Hamatom”
FLAGS DCP
INDEX 01 21:10:47
TRACK 08 AUDIO
TITLE “Auge Um Auge”
PERFORMER “Hamatom”
FLAGS DCP
INDEX 01 24:46:70
TRACK 09 AUDIO
TITLE “Man Muss Nicht Sterben, Um In Der Holle Zu Sein”
PERFORMER “Hamatom”
FLAGS DCP
INDEX 01 28:24:03
TRACK 10 AUDIO
TITLE “Ihr Kotzt Mich An”
PERFORMER “Hamatom”
FLAGS DCP
INDEX 01 32:23:50
TRACK 11 AUDIO
TITLE “Totgesagt Doch Neugeboren – Teil 3 (Pianoversion)”
PERFORMER “Hamatom”
FLAGS DCP
INDEX 01 36:25:01


Leave a Reply

Your email address will not be published. Required fields are marked *

This site uses Akismet to reduce spam. Learn how your comment data is processed.