H.e.a.t – H.e.a.t II




No Cover available

Artist: H.e.a.t
Year: 2020
Genre: Rock
Notes: Discogs
Add. Notes:
Watch Songs on: YouTube
Cover incl.: Yes
Encoder: FLAC
Bitrate: ~1100 kBit/s (44.1 kHz/16 Bit/s)
Log & Cue incl.: Yes/Yes
Size: 356,3 MB
Password: “slam” (without ” “)


All Downloads/Hosters are compatible

Download 1
KatFile.com
Turbobit.net
Rapidgator.net
FileFactory.com
Download 2
KatFile.com
Turbobit.net
Rapidgator.net
FileFactory.com

Tracklist:

01. Rock Your Body (4:04)
02. Dangerous Ground (4:07)
03. Come Clean (3:44)
04. Victory (4:28)
05. We Are Gods (4:11)
06. Adrenaline (4:26)
07. One By One (3:47)
08. Nothing To Say (4:08)
09. Heaven Must Have Won An Angel (4:42)
10. Under The Gun (3:25)
11. Rise (4:18)

EAC-Log, CUE-Sheed & NFO:

Click to open spoiler
CUE Corrector v. 8.3.6 / b. 966 (Feb. 19, 2020)
————————————————————————————————————————————————————————————————————————
H.e.a.t / H.e.a.t II

Folder: H.e.a.t – 2020 – H.e.a.t II [FLAC]
Audio files:
01 Rock Your Body.flac [04:03.747; FLAC • 1099 kbps • 16 bit \ 44100 Hz • stereo; 31,94 MB (33 493 542 B)]
02 Dangerous Ground.flac [04:06.827; FLAC • 1091 kbps • 16 bit \ 44100 Hz • stereo; 32,12 MB (33 680 369 B)]
03 Come Clean.flac [03:43.667; FLAC • 1094 kbps • 16 bit \ 44100 Hz • stereo; 29,17 MB (30 588 864 B)]
04 Victory.flac [04:28.147; FLAC • 1089 kbps • 16 bit \ 44100 Hz • stereo; 34,83 MB (36 519 174 B)]
05 We Are Gods.flac [04:11.320; FLAC • 1090 kbps • 16 bit \ 44100 Hz • stereo; 32,68 MB (34 269 750 B)]
06 Adrenaline.flac [04:26.107; FLAC • 1113 kbps • 16 bit \ 44100 Hz • stereo; 35,32 MB (37 040 796 B)]
07 One By One.flac [03:47.320; FLAC • 1130 kbps • 16 bit \ 44100 Hz • stereo; 30,64 MB (32 124 152 B)]
08 Nothing To Say.flac [04:07.907; FLAC • 1048 kbps • 16 bit \ 44100 Hz • stereo; 30,99 MB (32 494 596 B)]
09 Heaven Must Have Won An Angel.flac [04:41.533; FLAC • 1100 kbps • 16 bit \ 44100 Hz • stereo; 36,94 MB (38 729 380 B)]
10 Under The Gun.flac [03:25.320; FLAC • 1112 kbps • 16 bit \ 44100 Hz • stereo; 27,23 MB (28 548 064 B)]
11 Rise.flac [04:17.640; FLAC • 1120 kbps • 16 bit \ 44100 Hz • stereo; 34,41 MB (36 081 645 B)]

Accuracy: -m3

File 01 Rock Your Body – 100% CDDA [04:03:56]
File 02 Dangerous Ground – 100% CDDA [04:06:62]
File 03 Come Clean – 100% CDDA [03:43:50]
File 04 Victory – 100% CDDA [04:28:11]
File 05 We Are Gods – 100% CDDA [04:11:24]
File 06 Adrenaline – 100% CDDA [04:26:08]
File 07 One By One – 100% CDDA [03:47:24]
File 08 Nothing To Say – 99% CDDA [04:07:68]
File 09 Heaven Must Have Won An Angel – 100% CDDA [04:41:40]
File 10 Under The Gun – 100% CDDA [03:25:24]
File 11 Rise – 100% CDDA [04:17:48]
————— Summary: —————
These tracks looks like CDDA with probability 100%.
————————————————————————————————————————————————————————————————————————

ANALYZER:
auCDtect: CD records authenticity detector, version 0.8.2
Copyright (c) 2004 Oleg Berngardt. All rights reserved.
Copyright (c) 2004 Alexander Djourik. All rights reserved.

Time elapsed: 31.8 s
Log created at February 21, 2020 05:56:59

=== AD848204B9A58B22C8E87FEFB6D09C06612C9E2441483D8FFF76576B5EF91A85 ===
[свернуть]
CUETools
[CUETools log; Date: 21.02.2020 6:02:45; Version: 2.1.6]
[CTDB TOCID: 3D2BKBxQZsXyVjhxFKMWfFs1bPs-] disk not present in database.
[AccurateRip ID: 0012a8c0-00a1efcb-9c0a9f0b] disk not present in database.

Track Peak [ CRC32 ] [W/O NULL]
— 97,7 [358C8AAC] [0CE5D73C]
01 97,7 [2BF31F60] [BF707E8D]
02 97,7 [34BE7158] [DCFE3474]
03 97,7 [39344721] [12334152]
04 97,7 [71F100AB] [5E66859A]
05 97,7 [CD331B23] [3413782E]
06 97,7 [606C1E50] [49229C4D]
07 97,7 [3A959DD7] [5C940B7E]
08 97,7 [EFB3BB50] [20D785A5]
09 97,7 [ABC37F2B] [FDC519E8]
10 97,7 [BBDBE3CD] [B41735F9]
11 97,7 [1C282EE9] [A3D33E48]
[свернуть]
DR
foobar2000 1.5.1 / Замер динамического диапазона (DR) 1.1.1
Дата отчёта: 2020-02-21 05:55:56

——————————————————————————–
Анализ: H.e.a.t / H.e.a.t II
——————————————————————————–

DR Пики RMS Продолжительность трека
——————————————————————————–
DR5 -0.20 дБ -6.08 дБ 4:04 01-Rock Your Body
DR6 -0.20 дБ -6.46 дБ 4:07 02-Dangerous Ground
DR5 -0.20 дБ -6.27 дБ 3:44 03-Come Clean
DR5 -0.20 дБ -5.76 дБ 4:28 04-Victory
DR6 -0.20 дБ -6.89 дБ 4:11 05-We Are Gods
DR5 -0.20 дБ -5.60 дБ 4:26 06-Adrenaline
DR5 -0.20 дБ -5.76 дБ 3:47 07-One By One
DR6 -0.20 дБ -8.30 дБ 4:08 08-Nothing To Say
DR5 -0.20 дБ -6.63 дБ 4:42 09-Heaven Must Have Won An Angel
DR5 -0.20 дБ -6.05 дБ 3:25 10-Under The Gun
DR5 -0.20 дБ -6.37 дБ 4:18 11-Rise
——————————————————————————–

Количество треков: 11
Реальные значения DR: DR5

Частота: 44100 Гц
Каналов: 2
Разрядность: 16
Битрейт: 1108 кбит/с
Кодек: FLAC
================================================================================


Leave a Reply

Your email address will not be published. Required fields are marked *

Enter the text from the image below
 

This site uses Akismet to reduce spam. Learn how your comment data is processed.