H-Blockx – No Excuses




Artist: H-Blockx
Year: 2004
Genre: Rock
Add. Notes:
Encoder: FLAC
Bitrate: ~1000 kBit/s (VBR)
Size: 348,7 MB
Password: “slam” (without ” “)


Tracklist:

1	Leave Me Alone!	3:40
2	I Believe	3:20
3	No Excuses	4:20
4	Celebrate Youth	3:08
5	Hollywood	3:52
6	Push Me	3:44
7	Kiss Me	3:47
8	Intuition	3:33
9	Nothing Left At All	3:34
10	Where's The Message	3:46
11	Come Along With You	4:01
12	Anything (But Gone)	3:17
13	Seeking The Sun	3:27

Click to open spoiler
Отчёт EAC об извлечении, выполненном 28. сентября 2009, 20:13 для диска:
H Blockx / No Excuses

Дисковод: ASUS DRW-1608P3S Adapter: 1 ID: 0
Режим чтения: Достоверный (C2: нет, Точный поток: да, Отключение кэша: да)
Коррекция смещения при чтении: 48
Способность читать области Lead-in и Lead-out : Нет

Выходной формат: Внутренние WAV-операции
44.100 Гц; 16 бит; стерео

Другие параметры:
Заполнение пропущенных сэмплов тишиной : Да
Удаление блоков с тишиной в начале и конце : Нет
Встроенный Win32-интерфейс для Win NT/2000

Характеристики диапазона извлечения и сообщения об ошибках
Выбранный диапазон
Имя файла C:\H Blockx – No Excuses.wav

Пиковый уровень 100.0 %
Качество диапазона 100.0 %
CRC 06681D67
Копирование… OK

Ошибок не произошло

Конец отчёта

REM GENRE Crossover
REM DATE 2004
REM DISCID A10B270D
REM COMMENT “ExactAudioCopy v0.95b4”
PERFORMER “H Blockx”
TITLE “No Excuses”
FILE “H Blockx – No Excuses.wav” WAVE
TRACK 01 AUDIO
TITLE “Leave Me Alone”
PERFORMER “H Blockx”
INDEX 01 00:00:00
TRACK 02 AUDIO
TITLE “I Believe”
PERFORMER “H Blockx”
INDEX 00 03:40:17
INDEX 01 03:40:57
TRACK 03 AUDIO
TITLE “No Excuses”
PERFORMER “H Blockx”
INDEX 00 07:01:10
INDEX 01 07:01:38
TRACK 04 AUDIO
TITLE “Celebrate Youth”
PERFORMER “H Blockx”
INDEX 00 11:20:19
INDEX 01 11:21:52
TRACK 05 AUDIO
TITLE “Hollywood”
PERFORMER “H Blockx”
INDEX 00 14:29:52
INDEX 01 14:30:43
TRACK 06 AUDIO
TITLE “Push Me”
PERFORMER “H Blockx”
INDEX 01 18:22:57
TRACK 07 AUDIO
TITLE “Kiss Me”
PERFORMER “H Blockx”
INDEX 01 22:07:46
TRACK 08 AUDIO
TITLE “Intuition”
PERFORMER “H Blockx”
INDEX 00 25:53:46
INDEX 01 25:55:24
TRACK 09 AUDIO
TITLE “Nothing Left At All”
PERFORMER “H Blockx”
INDEX 00 29:28:46
INDEX 01 29:29:20
TRACK 10 AUDIO
TITLE “Where´s The Message”
PERFORMER “H Blockx”
INDEX 00 33:02:41
INDEX 01 33:03:36
TRACK 11 AUDIO
TITLE “Come Along With You”
PERFORMER “H Blockx”
INDEX 00 36:48:20
INDEX 01 36:49:35
TRACK 12 AUDIO
TITLE “Anything (But Gone)”
PERFORMER “H Blockx”
INDEX 00 40:49:16
INDEX 01 40:50:53
TRACK 13 AUDIO
TITLE “Seeking The Sun”
PERFORMER “H Blockx”
INDEX 00 44:08:24
INDEX 01 44:08:37

Leave a Reply

Your email address will not be published. Required fields are marked *

This site uses Akismet to reduce spam. Learn how your comment data is processed.