H-Blockx – More Than A Decade Best Of H-Blockx




[Total: 0    Average: 0/5]

Artist: H-Blockx
Year: 2004
Genre: Rock
Notes: Discogs
Add. Notes:
Cover incl.: Yes
Encoder: FLAC
Bitrate: ~1000 kBit/s (44.1 kHz/16 Bit/s)
Log & Cue incl.: Yes
Size: 540,01 MB
Password: “slam” (without ” “)


All Downloads/Hosters are compatible

Download 1
Share-online.biz
KatFile.com
Rapidgator.net
Mexa.sh
Download 2
Share-online.biz
KatFile.com
Rapidgator.net
Mexa.sh

Tracklist:

1 Move 4:54
2 Leave Me Alone! 3:39
3 Time Of My Life 3:21
4 Little Girl 4:41
5 The Power 4:05
6 How Do You Feel? 2:13
7 Risin High 3:56
8 Step Back 3:57
9 All Season Love 3:51
10 Celebrate Youth 3:11
11 Ring Of Fire 3:04
12 Fly 3:34
13 Get In The Ring 5:00
14 Revolution 4:32
15 True Faith 3:25
16 Take Me Home 4:00
17 Go Freaky 2:49
18 C Mon 3:37
19 Stop Talking To Me 3:29

EAC-Log, CUE-Sheed & NFO:

Click to open spoiler
Отчёт EAC об извлечении, выполненном 30. сентября 2009, 21:51 для диска:
H-Blockx / More Than A Decade – Best Of H-Blockx

Дисковод: ASUS DRW-1608P3S Adapter: 1 ID: 0
Режим чтения: Достоверный (C2: нет, Точный поток: да, Отключение кэша: да)
Коррекция смещения при чтении: 48
Способность читать области Lead-in и Lead-out : Нет

Выходной формат: Внутренние WAV-операции
44.100 Гц; 16 бит; стерео

Другие параметры:
Заполнение пропущенных сэмплов тишиной : Да
Удаление блоков с тишиной в начале и конце : Нет
Встроенный Win32-интерфейс для Win NT/2000

Характеристики диапазона извлечения и сообщения об ошибках
Выбранный диапазон
Имя файла C:\H-Blockx – More Than A Decade – Best Of H-Blockx.wav

Пиковый уровень 100.0 %
Качество диапазона 99.9 %
CRC ADDF79B8
Копирование… OK

Ошибок не произошло

Конец отчёта

—–

REM GENRE Rock
REM DATE 2004
REM DISCID 3010BF13
REM COMMENT “ExactAudioCopy v0.95b4”
PERFORMER “H-Blockx”
TITLE “More Than A Decade – Best Of H-Blockx”
FILE “H-Blockx – More Than A Decade – Best Of H-Blockx.wav” WAVE
TRACK 01 AUDIO
TITLE “Move”
PERFORMER “H-Blockx”
INDEX 01 00:00:00
TRACK 02 AUDIO
TITLE “Leave Me Alone!”
PERFORMER “H-Blockx”
INDEX 01 04:54:66
TRACK 03 AUDIO
TITLE “Time Of My Life”
PERFORMER “H-Blockx”
INDEX 01 08:34:45
TRACK 04 AUDIO
TITLE “Little Girl”
PERFORMER “H-Blockx”
INDEX 01 11:55:48
TRACK 05 AUDIO
TITLE “The Power”
PERFORMER “H-Blockx”
INDEX 01 16:37:09
TRACK 06 AUDIO
TITLE “How Do You Feel?”
PERFORMER “H-Blockx”
INDEX 01 20:42:73
TRACK 07 AUDIO
TITLE “Risin’ High”
PERFORMER “H-Blockx”
INDEX 01 22:56:31
TRACK 08 AUDIO
TITLE “Step Back”
PERFORMER “H-Blockx”
INDEX 01 26:53:18
TRACK 09 AUDIO
TITLE “All Season Love”
PERFORMER “H-Blockx”
INDEX 01 30:50:42
TRACK 10 AUDIO
TITLE “Celebrate Youth”
PERFORMER “H-Blockx”
INDEX 01 34:42:37
TRACK 11 AUDIO
TITLE “Ring Of Fire (feat. Dr.Ring-Ding)”
PERFORMER “H-Blockx”
INDEX 01 37:53:51
TRACK 12 AUDIO
TITLE “Fly”
PERFORMER “H-Blockx”
INDEX 01 40:58:20
TRACK 13 AUDIO
TITLE “Get In The Ring (feat. Dr.Ring-Ding)”
PERFORMER “H-Blockx”
INDEX 01 44:32:58
TRACK 14 AUDIO
TITLE “Revolution”
PERFORMER “H-Blockx”
INDEX 01 49:33:19
TRACK 15 AUDIO
TITLE “True Faith”
PERFORMER “H-Blockx”
INDEX 01 54:06:05
TRACK 16 AUDIO
TITLE “Take Me Home”
PERFORMER “H-Blockx”
INDEX 01 57:31:16
TRACK 17 AUDIO
TITLE “Go Freaky”
PERFORMER “H-Blockx”
INDEX 01 61:32:10
TRACK 18 AUDIO
TITLE “C’Mon (feat. B & K von Das Department)”
PERFORMER “H-Blockx”
INDEX 01 64:21:41
TRACK 19 AUDIO
TITLE “Stop Talking To Me”
PERFORMER “H-Blockx”
INDEX 01 67:59:02


Spread the Download

Leave a Reply

Your email address will not be published. Required fields are marked *

Enter the text from the image below
 

This site uses Akismet to reduce spam. Learn how your comment data is processed.