H-Blockx – Live




Artist: H-Blockx
Year: 2002
Genre: Rock
Notes: Discogs
Add. Notes:
Encoder: FLAC
Bitrate: ~1000 kBit/s (VBR)
Size: 557,34 MB
Password: “slam” (without ” “)


Tracklist:

1-01	Gen Intro The Ring	1:30
1-02	C'mon	3:40
1-03	Fly	4:27
1-04	Revolution	4:31
1-05	Step Back	4:11
1-06	All Season Love	3:50
1-07	Get In The Ring	5:16
1-08	How Do You Feel?	2:09
1-09	Million Miles	5:27
1-10	You're The One	3:37
2-01	Little Girl	6:46
2-02	Come Bad	4:30
2-03	Ring Of Fire	4:03
2-04	Don't Bring Me Down	3:54
2-05	Lost My Mind	3:49
2-06	Move	4:16
2-07	The Power	4:00
2-08	Someday Somehow	4:16
2-09	Risin' High	4:16
2-10	Get Out The Ring	1:26

Click to open spoiler
Отчёт EAC об извлечении, выполненном 30. сентября 2009, 21:20 для диска:
H-Blockx / Live

Дисковод: ASUS DRW-1608P3S Adapter: 1 ID: 0
Режим чтения: Достоверный (C2: нет, Точный поток: да, Отключение кэша: да)
Коррекция смещения при чтении: 48
Способность читать области Lead-in и Lead-out : Нет

Выходной формат: Внутренние WAV-операции
44.100 Гц; 16 бит; стерео

Другие параметры:
Заполнение пропущенных сэмплов тишиной : Да
Удаление блоков с тишиной в начале и конце : Нет
Встроенный Win32-интерфейс для Win NT/2000

Характеристики диапазона извлечения и сообщения об ошибках
Выбранный диапазон
Имя файла C:\H-Blockx – Live.wav

Пиковый уровень 99.2 %
Качество диапазона 100.0 %
CRC 975DBEAD
Копирование… OK

Ошибок не произошло

Конец отчёта

——————–

REM GENRE Alternative
REM DATE 2002
REM DISCID F211BC13
REM COMMENT “ExactAudioCopy v0.95b4”
PERFORMER “H-Blockx”
TITLE “Live”
FILE “H-Blockx – Live.wav” WAVE
TRACK 01 AUDIO
TITLE “Get Intro The Ring”
PERFORMER “H-Blockx”
INDEX 01 00:00:00
TRACK 02 AUDIO
TITLE “C’mon”
PERFORMER “H-Blockx”
INDEX 01 01:30:20
TRACK 03 AUDIO
TITLE “Fly”
PERFORMER “H-Blockx”
INDEX 01 05:10:69
TRACK 04 AUDIO
TITLE “Revolution”
PERFORMER “H-Blockx”
INDEX 01 09:38:28
TRACK 05 AUDIO
TITLE “Step Back”
PERFORMER “H-Blockx”
INDEX 01 14:09:59
TRACK 06 AUDIO
TITLE “All Season Love”
PERFORMER “H-Blockx”
INDEX 01 18:20:62
TRACK 07 AUDIO
TITLE “Get In The Ring”
PERFORMER “H-Blockx”
INDEX 01 22:11:04
TRACK 08 AUDIO
TITLE “How Do You Feel”
PERFORMER “H-Blockx”
INDEX 01 27:27:21
TRACK 09 AUDIO
TITLE “Million Miles”
PERFORMER “H-Blockx”
INDEX 01 29:37:09
TRACK 10 AUDIO
TITLE “You’re The One”
PERFORMER “H-Blockx”
INDEX 01 35:04:21
TRACK 11 AUDIO
TITLE “Little Girl”
PERFORMER “H-Blockx”
INDEX 01 38:41:41
TRACK 12 AUDIO
TITLE “Come Bad”
PERFORMER “H-Blockx”
INDEX 01 45:27:60
TRACK 13 AUDIO
TITLE “Ring Of Fire”
PERFORMER “H-Blockx”
INDEX 01 49:58:25
TRACK 14 AUDIO
TITLE “Don’t Bring Me Down”
PERFORMER “H-Blockx”
INDEX 01 54:01:55
TRACK 15 AUDIO
TITLE “Lost My Mind”
PERFORMER “H-Blockx”
INDEX 01 57:56:24
TRACK 16 AUDIO
TITLE “Move”
PERFORMER “H-Blockx”
INDEX 01 61:45:74
TRACK 17 AUDIO
TITLE “The Power”
PERFORMER “H-Blockx”
INDEX 01 66:00:55
TRACK 18 AUDIO
TITLE “Risin’ High”
PERFORMER “H-Blockx”
INDEX 01 69:58:01
TRACK 19 AUDIO
TITLE “Get Out Of The Ring”
PERFORMER “H-Blockx”
INDEX 01 74:14:06

Leave a Reply

Your email address will not be published. Required fields are marked *

This site uses Akismet to reduce spam. Learn how your comment data is processed.