H-Blockx – Get In The Ring




Artist: H-Blockx
Year: 2002
Genre: Rock
Notes: Discogs
Add. Notes:
Encoder: FLAC
Bitrate: ~1000 kBit/s (VBR)
Size: 365,4 MB
Password: “slam” (without ” “)


Tracklist:

1. C' Mon
2. The Power
3. Get In The Ring
4. All Seasons Love
5. You're The One
6. Don't Bring Me Down
7. Berlin-Monsta City
8. Witnezz (R U Wit' Me)
9. Come Bad
10. Million Miles
11. Lost My Mind
12. Ring Of Fire

Click to open spoiler
Отчёт EAC об извлечении, выполненном 25. сентября 2009, 16:43 для диска:
H-Blockx / Get In The Ring

Дисковод: ASUS DRW-1608P3S Adapter: 1 ID: 0
Режим чтения: Достоверный (C2: нет, Точный поток: да, Отключение кэша: да)
Коррекция смещения при чтении: 48
Способность читать области Lead-in и Lead-out : Нет

Выходной формат: Внутренние WAV-операции
44.100 Гц; 16 бит; стерео

Другие параметры:
Заполнение пропущенных сэмплов тишиной : Да
Удаление блоков с тишиной в начале и конце : Нет
Встроенный Win32-интерфейс для Win NT/2000

Характеристики диапазона извлечения и сообщения об ошибках
Выбранный диапазон
Имя файла C:\H-Blockx – Get In The Ring.wav

Пиковый уровень 98.1 %
Качество диапазона 100.0 %
CRC FBF17758
Копирование… OK

Ошибок не произошло

Конец отчёта

—–

REM GENRE Rock
REM DATE 2002
REM DISCID A70B2D0C
REM COMMENT “ExactAudioCopy v0.95b4”
PERFORMER “H-Blockx”
TITLE “Get In The Ring”
FILE “H-Blockx – Get In The Ring.wav” WAVE
TRACK 01 AUDIO
TITLE “C’ Mon (feat. B & K von das departament)”
PERFORMER “H-Blockx”
INDEX 01 00:00:00
TRACK 02 AUDIO
TITLE “The Power (feat. Turbo B.)”
PERFORMER “H-Blockx”
INDEX 01 03:39:33
TRACK 03 AUDIO
TITLE “Get In The Ring (feat. Dr.Ring-Ding)”
PERFORMER “H-Blockx”
INDEX 01 07:46:10
TRACK 04 AUDIO
TITLE “All Season Love”
PERFORMER “H-Blockx”
INDEX 01 12:46:16
TRACK 05 AUDIO
TITLE “You’re The One”
PERFORMER “H-Blockx”
INDEX 01 16:39:20
TRACK 06 AUDIO
TITLE “Don’t Bring Me Down”
PERFORMER “H-Blockx”
INDEX 01 20:13:32
TRACK 07 AUDIO
TITLE “Berlin – Monsta City (feat. B & K von das departament)”
PERFORMER “H-Blockx”
INDEX 01 24:15:62
TRACK 08 AUDIO
TITLE “Witnezz (R U Wit’ Me?)”
PERFORMER “H-Blockx”
INDEX 01 28:16:45
TRACK 09 AUDIO
TITLE “Come Bad”
PERFORMER “H-Blockx”
INDEX 01 32:21:18
TRACK 10 AUDIO
TITLE “Million Miles”
PERFORMER “H-Blockx”
INDEX 01 36:22:31
TRACK 11 AUDIO
TITLE “Lost My Mind”
PERFORMER “H-Blockx”
INDEX 01 40:42:49
TRACK 12 AUDIO
TITLE “Ring Of Fire (feat. Dr.Ring-Ding)”
PERFORMER “H-Blockx”
INDEX 01 44:36:09

Leave a Reply

Your email address will not be published. Required fields are marked *

This site uses Akismet to reduce spam. Learn how your comment data is processed.