H-Blockx – Fly Eyes




Artist: H-Blockx
Year: 1998
Genre: Rock
Notes: Discogs
Add. Notes:
Encoder: FLAC
Bitrate: ~900 kBit/s (VBR)
Size: 451,6 MB
Password: “slam” (without ” “)


Tracklist:

1	Fly	3:34
2	One Day	3:15
3	9:08 A.M.	4:18
4	Liquid Sunlight	4:06
5	Take Me Home
6	Even Goes	4:03
7	Without You	3:11
8	Stars	3:47
9	Tell Me Why	3:31
10	Black Skies
11	Can't Break My Fear	4:00
12	Cold	3:57
13	Heartblood	2:14
14	Wish	3:22
15	Paradise Valley	4:06

Click to open spoiler
Отчёт EAC об извлечении, выполненном 25. сентября 2009, 16:21 для диска:
H-Blockx / Fly Eyes

Дисковод: ASUS DRW-1608P3S Adapter: 1 ID: 0
Режим чтения: Достоверный (C2: нет, Точный поток: да, Отключение кэша: да)
Коррекция смещения при чтении: 48
Способность читать области Lead-in и Lead-out : Нет

Выходной формат: Внутренние WAV-операции
44.100 Гц; 16 бит; стерео

Другие параметры:
Заполнение пропущенных сэмплов тишиной : Да
Удаление блоков с тишиной в начале и конце : Нет
Встроенный Win32-интерфейс для Win NT/2000

Характеристики диапазона извлечения и сообщения об ошибках
Выбранный диапазон
Имя файла C:\H-Blockx – Fly Eyes.wav

Пиковый уровень 100.0 %
Качество диапазона 100.0 %
CRC 4730CBB7
Копирование… OK

Ошибок не произошло

Конец отчёта

———————–

REM GENRE “Hard Rock”
REM DATE 1998
REM DISCID C20ED40F
REM COMMENT “ExactAudioCopy v0.95b4”
PERFORMER “H-Blockx”
TITLE “Fly Eyes”
FILE “H-Blockx – Fly Eyes.wav” WAVE
TRACK 01 AUDIO
TITLE “Fly”
PERFORMER “H-Blockx”
INDEX 01 00:00:00
TRACK 02 AUDIO
TITLE “One Day”
PERFORMER “H-Blockx”
INDEX 00 03:35:60
INDEX 01 03:36:45
TRACK 03 AUDIO
TITLE “9.08 A.M”
PERFORMER “H-Blockx”
INDEX 00 06:51:17
INDEX 01 06:52:05
TRACK 04 AUDIO
TITLE “Liquid Sunlight”
PERFORMER “H-Blockx”
INDEX 00 11:10:55
INDEX 01 11:11:05
TRACK 05 AUDIO
TITLE “Take Me Home”
PERFORMER “H-Blockx”
INDEX 00 15:17:55
INDEX 01 15:18:05
TRACK 06 AUDIO
TITLE “Even Goes”
PERFORMER “H-Blockx”
INDEX 00 19:18:47
INDEX 01 19:19:07
TRACK 07 AUDIO
TITLE “Without You”
PERFORMER “H-Blockx”
INDEX 00 23:22:47
INDEX 01 23:23:02
TRACK 08 AUDIO
TITLE “Stars”
PERFORMER “H-Blockx”
INDEX 00 26:34:47
INDEX 01 26:36:05
TRACK 09 AUDIO
TITLE “Tell Me Why”
PERFORMER “H-Blockx”
INDEX 00 30:24:07
INDEX 01 30:24:70
TRACK 10 AUDIO
TITLE “Black Skies”
PERFORMER “H-Blockx”
INDEX 00 33:56:57
INDEX 01 33:57:37
TRACK 11 AUDIO
TITLE “Can’t Break My Fear”
PERFORMER “H-Blockx”
INDEX 00 38:21:35
INDEX 01 38:22:27
TRACK 12 AUDIO
TITLE “Cold”
PERFORMER “H-Blockx”
INDEX 00 42:22:17
INDEX 01 42:23:50
TRACK 13 AUDIO
TITLE “Heartblood”
PERFORMER “H-Blockx”
INDEX 00 46:20:30
INDEX 01 46:21:02
TRACK 14 AUDIO
TITLE “Wish”
PERFORMER “H-Blockx”
INDEX 01 48:36:02
TRACK 15 AUDIO
TITLE “Paradise Valley”
PERFORMER “H-Blockx”
INDEX 00 51:59:02
INDEX 01 51:59:15

Leave a Reply

Your email address will not be published. Required fields are marked *

This site uses Akismet to reduce spam. Learn how your comment data is processed.