Guns N’ Roses – Use Your Illusion II




Artist: Guns N’ Roses
Year: 1991
Genre: Rock
Notes: Discogs
Add. Notes:
Cover incl.: No
Encoder: FLAC
Bitrate: ~1000 kBit/s (44.1 kHz/16 Bit/s)
Log & Cue incl.: Yes
Size: 517,17 MB
Password: “slam” (without ” “)


All Downloads/Hosters are compatible

Download 1
Turbobit.net
Rapidgator.net
UploadEver.com
JustUpload.io
UsersDrive.com
Download 2
Turbobit.net
Rapidgator.net
UploadEver.com
JustUpload.io
UsersDrive.com
Download 3
Turbobit.net
Rapidgator.net
UploadEver.com
JustUpload.io
UsersDrive.com

Tracklist:

1 - Civil War - 7:42
2 - 14 Years - 4:21
3 - Yesterdays - 3:16
4 - Knockin' On Heaven's Door - 5:36
5 - Get In The Ring - 5:41
6 - Shotgun Blues - 3:23
7 - Breakdown - 7:04
8 - Pretty Tied Up (The Perils Of Rock N' Roll 
Decadence) - 4:47
9 - Locomotive (Complicity) - 8:42
10 - So Fine - 4:06
11 - Estranged - 9:23
12 - You Could Be Mine - 5:43
13 - Don't Cry (Alt. Lyrics) - 4:44
14 - My World - 1:23

EAC-Log, CUE-Sheed & NFO:

Click to open spoiler
Exact Audio Copy V0.99 prebeta 5 from 4. May 2009

EAC extraction logfile from 4. April 2010, 6:15

Guns N’ Roses / Use Your Illusion II

Used drive : PLEXTOR DVDR PX-716A Adapter: 4 ID: 0

Read mode : Secure
Utilize accurate stream : Yes
Defeat audio cache : Yes
Make use of C2 pointers : No

Read offset correction : 30
Overread into Lead-In and Lead-Out : No
Fill up missing offset samples with silence : Yes
Delete leading and trailing silent blocks : No
Null samples used in CRC calculations : Yes
Used interface : Native Win32 interface for Win NT & 2000
Gap handling : Appended to previous track

Used output format : User Defined Encoder
Selected bitrate : 1024 kBit/s
Quality : High
Add ID3 tag : No
Command line compressor : C:\Program Files (x86)\Exact Audio Copy\FLAC\FLAC.EXE
Additional command line options : -6 -V -T “ARTIST=%a” -T “TITLE=%t” -T “ALBUM=%g” -T “DATE=%y” -T “TRACKNUMBER=%n” -T “GENRE=%m” -T “COMMENT=%e” %s -o %d

TOC of the extracted CD

Track | Start | Length | Start sector | End sector
———————————————————
1 | 0:00.00 | 7:42.10 | 0 | 34659
2 | 7:42.10 | 4:21.25 | 34660 | 54259
3 | 12:03.35 | 3:16.17 | 54260 | 68976
4 | 15:19.52 | 5:36.03 | 68977 | 94179
5 | 20:55.55 | 5:41.20 | 94180 | 119774
6 | 26:37.00 | 3:23.00 | 119775 | 134999
7 | 30:00.00 | 7:04.37 | 135000 | 166836
8 | 37:04.37 | 4:47.70 | 166837 | 188431
9 | 41:52.32 | 8:42.08 | 188432 | 227589
10 | 50:34.40 | 4:06.25 | 227590 | 246064
11 | 54:40.65 | 9:23.67 | 246065 | 288356
12 | 64:04.57 | 5:43.50 | 288357 | 314131
13 | 69:48.32 | 4:44.20 | 314132 | 335451
14 | 74:32.52 | 1:24.13 | 335452 | 341764

Track 1

Filename C:\Users\Admin\Documents\EAC Rips\01. Guns N’ Roses – Civil War.wav

Pre-gap length 0:00:02.00

Peak level 100.0 %
Track quality 100.0 %
Test CRC D488F4C7
Copy CRC D488F4C7
Accurately ripped (confidence 19) [D4EDB710]
Copy OK

Track 2

Filename C:\Users\Admin\Documents\EAC Rips\02. Guns N’ Roses – 14 Years.wav

Pre-gap length 0:00:01.50

Peak level 100.0 %
Track quality 99.9 %
Test CRC 04979D22
Copy CRC 04979D22
Accurately ripped (confidence 19) [FEC2E90C]
Copy OK

Track 3

Filename C:\Users\Admin\Documents\EAC Rips\03. Guns N’ Roses – Yesterdays.wav

Pre-gap length 0:00:00.13

Peak level 100.0 %
Track quality 99.9 %
Test CRC 46DC55C7
Copy CRC 46DC55C7
Accurately ripped (confidence 19) [B212BE12]
Copy OK

Track 4

Filename C:\Users\Admin\Documents\EAC Rips\04. Guns N’ Roses – Knockin’ On Heaven’s Door.wav

Pre-gap length 0:00:01.35

Peak level 100.0 %
Track quality 99.9 %
Test CRC 73815591
Copy CRC 73815591
Accurately ripped (confidence 19) [C63EFC2B]
Copy OK

Track 5

Filename C:\Users\Admin\Documents\EAC Rips\05. Guns N’ Roses – Get In The Ring.wav

Pre-gap length 0:00:00.65

Peak level 100.0 %
Track quality 100.0 %
Test CRC 32A30010
Copy CRC 32A30010
Accurately ripped (confidence 19) [091B2A40]
Copy OK

Track 6

Filename C:\Users\Admin\Documents\EAC Rips\06. Guns N’ Roses – Shotgun Blues.wav

Pre-gap length 0:00:00.43

Peak level 100.0 %
Track quality 100.0 %
Test CRC FD2E7408
Copy CRC FD2E7408
Accurately ripped (confidence 19) [940BC96A]
Copy OK

Track 7

Filename C:\Users\Admin\Documents\EAC Rips\07. Guns N’ Roses – Breakdown.wav

Pre-gap length 0:00:00.55

Peak level 100.0 %
Track quality 100.0 %
Test CRC 4F3CECB0
Copy CRC 4F3CECB0
Accurately ripped (confidence 19) [ED91636B]
Copy OK

Track 8

Filename C:\Users\Admin\Documents\EAC Rips\08. Guns N’ Roses – Pretty Tied Up.wav

Pre-gap length 0:00:00.65

Peak level 100.0 %
Track quality 100.0 %
Test CRC F230E4C9
Copy CRC F230E4C9
Accurately ripped (confidence 19) [A8DA565E]
Copy OK

Track 9

Filename C:\Users\Admin\Documents\EAC Rips\09. Guns N’ Roses – Locomotive.wav

Pre-gap length 0:00:00.32

Peak level 100.0 %
Track quality 100.0 %
Test CRC ABDD3726
Copy CRC ABDD3726
Accurately ripped (confidence 19) [23DAB839]
Copy OK

Track 10

Filename C:\Users\Admin\Documents\EAC Rips\10. Guns N’ Roses – So Fine.wav

Pre-gap length 0:00:01.15

Peak level 100.0 %
Track quality 100.0 %
Test CRC 47BE7A05
Copy CRC 47BE7A05
Accurately ripped (confidence 19) [C1455E3F]
Copy OK

Track 11

Filename C:\Users\Admin\Documents\EAC Rips\11. Guns N’ Roses – Estranged.wav

Pre-gap length 0:00:00.25

Peak level 100.0 %
Track quality 100.0 %
Test CRC 7700D829
Copy CRC 7700D829
Accurately ripped (confidence 18) [7068D77F]
Copy OK

Track 12

Filename C:\Users\Admin\Documents\EAC Rips\12. Guns N’ Roses – You Could Be Mine.wav

Pre-gap length 0:00:01.00

Peak level 100.0 %
Track quality 99.9 %
Test CRC 7F274449
Copy CRC 7F274449
Accurately ripped (confidence 19) [AB951333]
Copy OK

Track 13

Filename C:\Users\Admin\Documents\EAC Rips\13. Guns N’ Roses – Don’t Cry (Alt. Lyrics).wav

Pre-gap length 0:00:00.52

Peak level 100.0 %
Track quality 99.9 %
Test CRC BF168401
Copy CRC BF168401
Accurately ripped (confidence 19) [5E2AE50A]
Copy OK

Track 14

Filename C:\Users\Admin\Documents\EAC Rips\14. Guns N’ Roses – My World.wav

Pre-gap length 0:00:00.47

Peak level 100.0 %
Track quality 100.0 %
Test CRC B926D35C
Copy CRC B926D35C
Accurately ripped (confidence 17) [D94FA5A2]
Copy OK

All tracks accurately ripped

No errors occurred

End of status report

REM GENRE Rock
REM DATE 1991
REM DISCID C511CC0E
REM COMMENT “ExactAudioCopy v0.99pb5”
PERFORMER “Guns N’ Roses”
TITLE “Use Your Illusion II”
FILE “01. Guns N’ Roses – Civil War.wav” WAVE
TRACK 01 AUDIO
TITLE “Civil War”
PERFORMER “Guns N’ Roses”
INDEX 01 00:00:00
TRACK 02 AUDIO
TITLE “14 Years”
PERFORMER “Guns N’ Roses”
INDEX 00 07:40:35
FILE “02. Guns N’ Roses – 14 Years.wav” WAVE
INDEX 01 00:00:00
TRACK 03 AUDIO
TITLE “Yesterdays”
PERFORMER “Guns N’ Roses”
INDEX 00 04:21:12
FILE “03. Guns N’ Roses – Yesterdays.wav” WAVE
INDEX 01 00:00:00
TRACK 04 AUDIO
TITLE “Knockin’ On Heaven’s Door”
PERFORMER “Guns N’ Roses”
INDEX 00 03:14:57
FILE “04. Guns N’ Roses – Knockin’ On Heaven’s Door.wav” WAVE
INDEX 01 00:00:00
TRACK 05 AUDIO
TITLE “Get In The Ring”
PERFORMER “Guns N’ Roses”
INDEX 00 05:35:13
FILE “05. Guns N’ Roses – Get In The Ring.wav” WAVE
INDEX 01 00:00:00
TRACK 06 AUDIO
TITLE “Shotgun Blues”
PERFORMER “Guns N’ Roses”
INDEX 00 05:40:52
FILE “06. Guns N’ Roses – Shotgun Blues.wav” WAVE
INDEX 01 00:00:00
TRACK 07 AUDIO
TITLE “Breakdown”
PERFORMER “Guns N’ Roses”
INDEX 00 03:22:20
FILE “07. Guns N’ Roses – Breakdown.wav” WAVE
INDEX 01 00:00:00
TRACK 08 AUDIO
TITLE “Pretty Tied Up”
PERFORMER “Guns N’ Roses”
INDEX 00 07:03:47
FILE “08. Guns N’ Roses – Pretty Tied Up.wav” WAVE
INDEX 01 00:00:00
TRACK 09 AUDIO
TITLE “Locomotive”
PERFORMER “Guns N’ Roses”
INDEX 00 04:47:38
FILE “09. Guns N’ Roses – Locomotive.wav” WAVE
INDEX 01 00:00:00
TRACK 10 AUDIO
TITLE “So Fine”
PERFORMER “Guns N’ Roses”
INDEX 00 08:40:68
FILE “10. Guns N’ Roses – So Fine.wav” WAVE
INDEX 01 00:00:00
TRACK 11 AUDIO
TITLE “Estranged”
PERFORMER “Guns N’ Roses”
INDEX 00 04:06:00
FILE “11. Guns N’ Roses – Estranged.wav” WAVE
INDEX 01 00:00:00
TRACK 12 AUDIO
TITLE “You Could Be Mine”
PERFORMER “Guns N’ Roses”
INDEX 00 09:22:67
FILE “12. Guns N’ Roses – You Could Be Mine.wav” WAVE
INDEX 01 00:00:00
TRACK 13 AUDIO
TITLE “Don’t Cry (Alt. Lyrics)”
PERFORMER “Guns N’ Roses”
INDEX 00 05:42:73
FILE “13. Guns N’ Roses – Don’t Cry (Alt. Lyrics).wav” WAVE
INDEX 01 00:00:00
TRACK 14 AUDIO
TITLE “My World”
PERFORMER “Guns N’ Roses”
INDEX 00 04:43:48
FILE “14. Guns N’ Roses – My World.wav” WAVE
INDEX 01 00:00:00

Leave a Reply

Your email address will not be published. Required fields are marked *

This site uses Akismet to reduce spam. Learn how your comment data is processed.