Guns N’ Roses – Use Your Illusion I




Artist: Guns N’ Roses
Year: 1991
Genre: Rock
Notes: Discogs
Add. Notes:
Cover incl.: No
Encoder: FLAC
Bitrate: ~1000 kBit/s (44.1 kHz/16 Bit/s)
Log & Cue incl.: Yes
Size: 478,66 MB
Password: “slam” (without ” “)


All Downloads/Hosters are compatible

Download 1
Turbobit.net
Rapidgator.net
UploadEver.com
JustUpload.io
UsersDrive.com
Download 2
Turbobit.net
Rapidgator.net
UploadEver.com
JustUpload.io
UsersDrive.com
Download 3
Turbobit.net
Rapidgator.net
UploadEver.com
JustUpload.io
UsersDrive.com

Tracklist:

1 - Right Next Door To Hell - 3:02
2 - Dust N' Bones - 4:58
3 - Live And Let Die - 3:04
4 - Don't Cry (Original) - 4:44
5 - Perfect Crime - 2:23
6 - You Ain't The First - 2:36
7 - Bad Obsession - 5:28
8 - Back Off Bitch - 5:03
9 - Double Talkin' Jive - 3:23
10 - November Rain - 8:57
11 - The Garden - 5:22
12 - Garden Of Eden - 2:41
13 - Don't Damn Me - 5:18
14 - Bad Apples - 4:28
15 - Dead Horse - 4:17
16 - Coma - 10:13

EAC-Log, CUE-Sheed & NFO:

Click to open spoiler
Exact Audio Copy V0.99 prebeta 5 from 4. May 2009

EAC extraction logfile from 4. April 2010, 4:43

Guns N’ Roses / Use Your Illusion I

Used drive : PLEXTOR DVDR PX-716A Adapter: 4 ID: 0

Read mode : Secure
Utilize accurate stream : Yes
Defeat audio cache : Yes
Make use of C2 pointers : No

Read offset correction : 30
Overread into Lead-In and Lead-Out : No
Fill up missing offset samples with silence : Yes
Delete leading and trailing silent blocks : No
Null samples used in CRC calculations : Yes
Used interface : Native Win32 interface for Win NT & 2000
Gap handling : Appended to previous track

Used output format : User Defined Encoder
Selected bitrate : 1024 kBit/s
Quality : High
Add ID3 tag : No
Command line compressor : C:\Program Files (x86)\Exact Audio Copy\FLAC\FLAC.EXE
Additional command line options : -6 -V -T “ARTIST=%a” -T “TITLE=%t” -T “ALBUM=%g” -T “DATE=%y” -T “TRACKNUMBER=%n” -T “GENRE=%m” -T “COMMENT=%e” %s -o %d

TOC of the extracted CD

Track | Start | Length | Start sector | End sector
———————————————————
1 | 0:00.00 | 3:01.72 | 0 | 13646
2 | 3:01.72 | 4:58.15 | 13647 | 36011
3 | 8:00.12 | 3:04.08 | 36012 | 49819
4 | 11:04.20 | 4:44.57 | 49820 | 71176
5 | 15:49.02 | 2:23.48 | 71177 | 81949
6 | 18:12.50 | 2:36.02 | 81950 | 93651
7 | 20:48.52 | 5:28.33 | 93652 | 118284
8 | 26:17.10 | 5:03.35 | 118285 | 141044
9 | 31:20.45 | 3:23.47 | 141045 | 156316
10 | 34:44.17 | 8:57.35 | 156317 | 196626
11 | 43:41.52 | 5:22.18 | 196627 | 220794
12 | 49:03.70 | 2:41.47 | 220795 | 232916
13 | 51:45.42 | 5:18.60 | 232917 | 256826
14 | 57:04.27 | 4:28.25 | 256827 | 276951
15 | 61:32.52 | 4:17.35 | 276952 | 296261
16 | 65:50.12 | 10:14.15 | 296262 | 342326

Track 1

Filename C:\Users\Admin\Documents\EAC Rips\01. Guns N’ Roses – Right Next Door To Hell.wav

Pre-gap length 0:00:02.00

Peak level 100.0 %
Track quality 99.9 %
Test CRC 617FCC6A
Copy CRC 617FCC6A
Accurately ripped (confidence 7) [7715D40D]
Copy OK

Track 2

Filename C:\Users\Admin\Documents\EAC Rips\02. Guns N’ Roses – Dust N’ Bones.wav

Pre-gap length 0:00:00.45

Peak level 100.0 %
Track quality 99.9 %
Test CRC 209D808D
Copy CRC 209D808D
Accurately ripped (confidence 8) [6C9E0EF3]
Copy OK

Track 3

Filename C:\Users\Admin\Documents\EAC Rips\03. Guns N’ Roses – Live And Let Die.wav

Peak level 100.0 %
Track quality 100.0 %
Test CRC DFE87E94
Copy CRC DFE87E94
Accurately ripped (confidence 8) [00F267BE]
Copy OK

Track 4

Filename C:\Users\Admin\Documents\EAC Rips\04. Guns N’ Roses – Don’t Cry (Original).wav

Pre-gap length 0:00:01.15

Peak level 100.0 %
Track quality 100.0 %
Test CRC 8B43A983
Copy CRC 8B43A983
Accurately ripped (confidence 8) [4CE2695D]
Copy OK

Track 5

Filename C:\Users\Admin\Documents\EAC Rips\05. Guns N’ Roses – Perfect Crime.wav

Pre-gap length 0:00:00.50

Peak level 100.0 %
Track quality 100.0 %
Test CRC 266BD876
Copy CRC 266BD876
Accurately ripped (confidence 7) [8D81D48A]
Copy OK

Track 6

Filename C:\Users\Admin\Documents\EAC Rips\06. Guns N’ Roses – You Ain’t The First.wav

Pre-gap length 0:00:00.23

Peak level 98.0 %
Track quality 100.0 %
Test CRC BD785FE0
Copy CRC BD785FE0
Accurately ripped (confidence 8) [089CBB52]
Copy OK

Track 7

Filename C:\Users\Admin\Documents\EAC Rips\07. Guns N’ Roses – Bad Obsession.wav

Peak level 100.0 %
Track quality 100.0 %
Test CRC BDEFE76F
Copy CRC BDEFE76F
Accurately ripped (confidence 7) [7E1F814C]
Copy OK

Track 8

Filename C:\Users\Admin\Documents\EAC Rips\08. Guns N’ Roses – Back Off Bitch.wav

Pre-gap length 0:00:01.28

Peak level 100.0 %
Track quality 100.0 %
Test CRC 4D2C41B0
Copy CRC 4D2C41B0
Accurately ripped (confidence 7) [B44D8762]
Copy OK

Track 9

Filename C:\Users\Admin\Documents\EAC Rips\09. Guns N’ Roses – Double Talkin’ Jive.wav

Pre-gap length 0:00:01.05

Peak level 100.0 %
Track quality 100.0 %
Test CRC 3993BDCE
Copy CRC 3993BDCE
Accurately ripped (confidence 8) [5FC3679A]
Copy OK

Track 10

Filename C:\Users\Admin\Documents\EAC Rips\10. Guns N’ Roses – November Rain.wav

Pre-gap length 0:00:01.45

Peak level 100.0 %
Track quality 100.0 %
Test CRC FB6711BE
Copy CRC FB6711BE
Accurately ripped (confidence 8) [835762C3]
Copy OK

Track 11

Filename C:\Users\Admin\Documents\EAC Rips\11. Guns N’ Roses – The Garden.wav

Pre-gap length 0:00:01.22

Peak level 100.0 %
Track quality 100.0 %
Test CRC E8890253
Copy CRC E8890253
Accurately ripped (confidence 7) [A7E00422]
Copy OK

Track 12

Filename C:\Users\Admin\Documents\EAC Rips\12. Guns N’ Roses – Garden Of Eden.wav

Pre-gap length 0:00:02.50

Peak level 100.0 %
Track quality 100.0 %
Test CRC BDE1672D
Copy CRC BDE1672D
Accurately ripped (confidence 6) [FD0C7AC7]
Copy OK

Track 13

Filename C:\Users\Admin\Documents\EAC Rips\13. Guns N’ Roses – Don’t Damn Me.wav

Pre-gap length 0:00:00.57

Peak level 100.0 %
Track quality 99.9 %
Test CRC CE1F3291
Copy CRC CE1F3291
Accurately ripped (confidence 6) [A41A94A4]
Copy OK

Track 14

Filename C:\Users\Admin\Documents\EAC Rips\14. Guns N’ Roses – Bad Apples.wav

Pre-gap length 0:00:00.22

Peak level 100.0 %
Track quality 100.0 %
Test CRC A339E686
Copy CRC A339E686
Accurately ripped (confidence 7) [08F1A7D5]
Copy OK

Track 15

Filename C:\Users\Admin\Documents\EAC Rips\15. Guns N’ Roses – Dead Horse.wav

Pre-gap length 0:00:01.07

Peak level 100.0 %
Track quality 100.0 %
Test CRC BD444932
Copy CRC BD444932
Accurately ripped (confidence 8) [7C5954AF]
Copy OK

Track 16

Filename C:\Users\Admin\Documents\EAC Rips\16. Guns N’ Roses – Coma.wav

Peak level 100.0 %
Track quality 100.0 %
Test CRC DEEB9167
Copy CRC DEEB9167
Accurately ripped (confidence 7) [5A64B4D4]
Copy OK

All tracks accurately ripped

No errors occurred

End of status report

REM GENRE Rock
REM DATE 1991
REM DISCID F011D410
REM COMMENT “ExactAudioCopy v0.99pb5”
PERFORMER “Guns N’ Roses”
TITLE “Use Your Illusion I”
FILE “01. Guns N’ Roses – Right Next Door To Hell.wav” WAVE
TRACK 01 AUDIO
TITLE “Right Next Door To Hell”
PERFORMER “Guns N’ Roses”
INDEX 01 00:00:00
TRACK 02 AUDIO
TITLE “Dust N’ Bones”
PERFORMER “Guns N’ Roses”
INDEX 00 03:01:27
FILE “02. Guns N’ Roses – Dust N’ Bones.wav” WAVE
INDEX 01 00:00:00
FILE “03. Guns N’ Roses – Live And Let Die.wav” WAVE
TRACK 03 AUDIO
TITLE “Live And Let Die”
PERFORMER “Guns N’ Roses”
INDEX 01 00:00:00
TRACK 04 AUDIO
TITLE “Don’t Cry (Original)”
PERFORMER “Guns N’ Roses”
INDEX 00 03:02:68
FILE “04. Guns N’ Roses – Don’t Cry (Original).wav” WAVE
INDEX 01 00:00:00
TRACK 05 AUDIO
TITLE “Perfect Crime”
PERFORMER “Guns N’ Roses”
INDEX 00 04:44:07
FILE “05. Guns N’ Roses – Perfect Crime.wav” WAVE
INDEX 01 00:00:00
TRACK 06 AUDIO
TITLE “You Ain’t The First”
PERFORMER “Guns N’ Roses”
INDEX 00 02:23:25
FILE “06. Guns N’ Roses – You Ain’t The First.wav” WAVE
INDEX 01 00:00:00
FILE “07. Guns N’ Roses – Bad Obsession.wav” WAVE
TRACK 07 AUDIO
TITLE “Bad Obsession”
PERFORMER “Guns N’ Roses”
INDEX 01 00:00:00
TRACK 08 AUDIO
TITLE “Back Off Bitch”
PERFORMER “Guns N’ Roses”
INDEX 00 05:27:05
FILE “08. Guns N’ Roses – Back Off Bitch.wav” WAVE
INDEX 01 00:00:00
TRACK 09 AUDIO
TITLE “Double Talkin’ Jive”
PERFORMER “Guns N’ Roses”
INDEX 00 05:02:30
FILE “09. Guns N’ Roses – Double Talkin’ Jive.wav” WAVE
INDEX 01 00:00:00
TRACK 10 AUDIO
TITLE “November Rain”
PERFORMER “Guns N’ Roses”
INDEX 00 03:22:02
FILE “10. Guns N’ Roses – November Rain.wav” WAVE
INDEX 01 00:00:00
TRACK 11 AUDIO
TITLE “The Garden”
PERFORMER “Guns N’ Roses”
INDEX 00 08:56:13
FILE “11. Guns N’ Roses – The Garden.wav” WAVE
INDEX 01 00:00:00
TRACK 12 AUDIO
TITLE “Garden Of Eden”
PERFORMER “Guns N’ Roses”
INDEX 00 05:19:43
FILE “12. Guns N’ Roses – Garden Of Eden.wav” WAVE
INDEX 01 00:00:00
TRACK 13 AUDIO
TITLE “Don’t Damn Me”
PERFORMER “Guns N’ Roses”
INDEX 00 02:40:65
FILE “13. Guns N’ Roses – Don’t Damn Me.wav” WAVE
INDEX 01 00:00:00
TRACK 14 AUDIO
TITLE “Bad Apples”
PERFORMER “Guns N’ Roses”
INDEX 00 05:18:38
FILE “14. Guns N’ Roses – Bad Apples.wav” WAVE
INDEX 01 00:00:00
TRACK 15 AUDIO
TITLE “Dead Horse”
PERFORMER “Guns N’ Roses”
INDEX 00 04:27:18
FILE “15. Guns N’ Roses – Dead Horse.wav” WAVE
INDEX 01 00:00:00
FILE “16. Guns N’ Roses – Coma.wav” WAVE
TRACK 16 AUDIO
TITLE “Coma”
PERFORMER “Guns N’ Roses”
INDEX 01 00:00:00

Leave a Reply

Your email address will not be published. Required fields are marked *

This site uses Akismet to reduce spam. Learn how your comment data is processed.