Guns N’ Roses – November Rain at the Tokyo Dome (22.02.1992)




Artist: Guns N’ Roses
Year: 1992
Genre: Rock
Notes: Discogs
Add. Notes:
Encoder: FLAC
Bitrate: ~700 kBit/s (44.1 kHz/16 Bit/s)
Size: 814,94 MB
Password: “slam” (without ” “)


Crypted via FileCrypt.cc:

.

Crypted via Relink.to:

Tracklist:

1-1 - Night Train - 5:23
1-2 - Mr. Brownstone - 4:56
1-3 - Live And Let Die - 3:47
1-4 - It's So Easy - 4:04
1-5 - Bad Obsession - 7:00
1-6 - Pretty Tied Up - 5:38
1-7 - Welcome To The Jungle - 5:33
1-8 - Don't Cry - 6:26
1-9 - Double Talkin' Jive Motherfucker - 8:52
1-10 - Civil War - 7:55
1-11 - Wild Horses - 3:39
1-12 - Patience - 6:45
1-13 - You Could Be Mine - 6:08
2-1 - November Rain - 14:24
2-2 - Sweet Child O' Mine - 9:27
2-3 - So Fine - 3:35
2-4 - Rocket Queen - 9:24
2-5 - Move To The City - 8:06
2-6 - Knockin' On Heaven's Door - 13:42
2-7 - Estranged - 9:28
2-8 - Paradise City - 7:40

EAC-Log, CUE-Sheed & NFO:

Click to open spoiler
Exact Audio Copy V1.0 beta 1 from 15. November 2010

EAC extraction logfile from 24. April 2011, 1:33

Guns N’ Roses / November Rain at the Tokyo Dome – Disk 1

Used drive : HL-DT-STDVD-RAM GSA-H20L Adapter: 1 ID: 0

Read mode : Secure
Utilize accurate stream : Yes
Defeat audio cache : Yes
Make use of C2 pointers : No

Read offset correction : 102
Overread into Lead-In and Lead-Out : No
Fill up missing offset samples with silence : Yes
Delete leading and trailing silent blocks : No
Null samples used in CRC calculations : Yes
Used interface : Native Win32 interface for Win NT & 2000
Gap handling : Appended to previous track

Used output format : User Defined Encoder
Selected bitrate : 896 kBit/s
Quality : High
Add ID3 tag : No
Command line compressor : D:\[ Software ]\Exact Audio Copy v1.0\FLAC\FLAC.EXE
Additional command line options : -8 -V -T “ARTIST=%a” -T “TITLE=%t” -T “ALBUM=%g” -T “DATE=%y” -T “TRACKNUMBER=%n” -T “GENRE=%m” -T “COMMENT=%e” %j–picture=”%i”%j %s -o %d

TOC of the extracted CD

Track | Start | Length | Start sector | End sector
———————————————————
1 | 0:00.00 | 5:21.35 | 0 | 24109
2 | 5:21.35 | 4:57.05 | 24110 | 46389
3 | 10:18.40 | 3:47.35 | 46390 | 63449
4 | 14:06.00 | 4:03.62 | 63450 | 81736
5 | 18:09.62 | 7:00.28 | 81737 | 113264
6 | 25:10.15 | 5:37.67 | 113265 | 138606
7 | 30:48.07 | 5:34.08 | 138607 | 163664
8 | 36:22.15 | 6:26.25 | 163665 | 192639
9 | 42:48.40 | 8:53.05 | 192640 | 232619
10 | 51:41.45 | 7:55.55 | 232620 | 268299
11 | 59:37.25 | 3:39.50 | 268300 | 284774
12 | 63:17.00 | 6:45.25 | 284775 | 315174
13 | 70:02.25 | 6:07.00 | 315175 | 342699

Track 1

Filename E:\[ – Torrent – ]\[ Upload ]\Guns N’ Roses – 1992 – November Rain at the Tokyo Dome (22.02.1992)\CD1\01 – Night Train.wav

Pre-gap length 0:00:02.00

Peak level 96.3 %
Extraction speed 1.9 X
Track quality 100.0 %
Test CRC 165670EB
Copy CRC 165670EB
Track not present in AccurateRip database
Copy OK

Track 2

Filename E:\[ – Torrent – ]\[ Upload ]\Guns N’ Roses – 1992 – November Rain at the Tokyo Dome (22.02.1992)\CD1\02 – Mr. Brownstone.wav

Peak level 93.2 %
Extraction speed 2.1 X
Track quality 100.0 %
Test CRC 15CDB9D4
Copy CRC 15CDB9D4
Track not present in AccurateRip database
Copy OK

Track 3

Filename E:\[ – Torrent – ]\[ Upload ]\Guns N’ Roses – 1992 – November Rain at the Tokyo Dome (22.02.1992)\CD1\03 – Live And Let Die.wav

Peak level 100.0 %
Extraction speed 1.9 X
Track quality 99.9 %
Test CRC 57D3DC5D
Copy CRC 57D3DC5D
Track not present in AccurateRip database
Copy OK

Track 4

Filename E:\[ – Torrent – ]\[ Upload ]\Guns N’ Roses – 1992 – November Rain at the Tokyo Dome (22.02.1992)\CD1\04 – It’s So Easy.wav

Peak level 96.9 %
Extraction speed 2.3 X
Track quality 100.0 %
Test CRC EAA389FA
Copy CRC EAA389FA
Track not present in AccurateRip database
Copy OK

Track 5

Filename E:\[ – Torrent – ]\[ Upload ]\Guns N’ Roses – 1992 – November Rain at the Tokyo Dome (22.02.1992)\CD1\05 – Bad Obsession.wav

Peak level 97.4 %
Extraction speed 2.4 X
Track quality 99.9 %
Test CRC C7751EA9
Copy CRC C7751EA9
Track not present in AccurateRip database
Copy OK

Track 6

Filename E:\[ – Torrent – ]\[ Upload ]\Guns N’ Roses – 1992 – November Rain at the Tokyo Dome (22.02.1992)\CD1\06 – Pretty Tied Up.wav

Peak level 89.4 %
Extraction speed 2.7 X
Track quality 100.0 %
Test CRC 5E40C03B
Copy CRC 5E40C03B
Track not present in AccurateRip database
Copy OK

Track 7

Filename E:\[ – Torrent – ]\[ Upload ]\Guns N’ Roses – 1992 – November Rain at the Tokyo Dome (22.02.1992)\CD1\07 – Welcome To The Jungle.wav

Peak level 91.6 %
Extraction speed 2.8 X
Track quality 100.0 %
Test CRC AFDFDB33
Copy CRC AFDFDB33
Track not present in AccurateRip database
Copy OK

Track 8

Filename E:\[ – Torrent – ]\[ Upload ]\Guns N’ Roses – 1992 – November Rain at the Tokyo Dome (22.02.1992)\CD1\08 – Don’t Cry.wav

Peak level 97.4 %
Extraction speed 3.1 X
Track quality 100.0 %
Test CRC 01E8EF67
Copy CRC 01E8EF67
Track not present in AccurateRip database
Copy OK

Track 9

Filename E:\[ – Torrent – ]\[ Upload ]\Guns N’ Roses – 1992 – November Rain at the Tokyo Dome (22.02.1992)\CD1\09 – Double Talkin’ Jive Motherfucker.wav

Peak level 95.6 %
Extraction speed 3.4 X
Track quality 100.0 %
Test CRC 555BE04B
Copy CRC 555BE04B
Track not present in AccurateRip database
Copy OK

Track 10

Filename E:\[ – Torrent – ]\[ Upload ]\Guns N’ Roses – 1992 – November Rain at the Tokyo Dome (22.02.1992)\CD1\10 – Civil War.wav

Peak level 100.0 %
Extraction speed 3.6 X
Track quality 100.0 %
Test CRC C4EE4656
Copy CRC C4EE4656
Track not present in AccurateRip database
Copy OK

Track 11

Filename E:\[ – Torrent – ]\[ Upload ]\Guns N’ Roses – 1992 – November Rain at the Tokyo Dome (22.02.1992)\CD1\11 – Wild Horses.wav

Peak level 78.8 %
Extraction speed 3.4 X
Track quality 100.0 %
Test CRC B3A02BF3
Copy CRC B3A02BF3
Track not present in AccurateRip database
Copy OK

Track 12

Filename E:\[ – Torrent – ]\[ Upload ]\Guns N’ Roses – 1992 – November Rain at the Tokyo Dome (22.02.1992)\CD1\12 – Patience.wav

Peak level 100.0 %
Extraction speed 3.8 X
Track quality 100.0 %
Test CRC 3A94E90A
Copy CRC 3A94E90A
Track not present in AccurateRip database
Copy OK

Track 13

Filename E:\[ – Torrent – ]\[ Upload ]\Guns N’ Roses – 1992 – November Rain at the Tokyo Dome (22.02.1992)\CD1\13 – You Could Be Mine.wav

Peak level 92.6 %
Extraction speed 3.9 X
Track quality 100.0 %
Test CRC F04A7DC6
Copy CRC F04A7DC6
Track not present in AccurateRip database
Copy OK

None of the tracks are present in the AccurateRip database

No errors occurred

End of status report

==== Log checksum C88691D7A0D76099442EE4F7D3A84FB5B3846FF0429C38A201658E6A9B3F801B ====

Exact Audio Copy V1.0 beta 1 from 15. November 2010

EAC extraction logfile from 24. April 2011, 2:43

Guns N’ Roses / November Rain at the Tokyo Dome – Disk 2

Used drive : HL-DT-STDVD-RAM GSA-H20L Adapter: 1 ID: 0

Read mode : Secure
Utilize accurate stream : Yes
Defeat audio cache : Yes
Make use of C2 pointers : No

Read offset correction : 102
Overread into Lead-In and Lead-Out : No
Fill up missing offset samples with silence : Yes
Delete leading and trailing silent blocks : No
Null samples used in CRC calculations : Yes
Used interface : Native Win32 interface for Win NT & 2000
Gap handling : Appended to previous track

Used output format : User Defined Encoder
Selected bitrate : 896 kBit/s
Quality : High
Add ID3 tag : No
Command line compressor : D:\[ Software ]\Exact Audio Copy v1.0\FLAC\FLAC.EXE
Additional command line options : -8 -V -T “ARTIST=%a” -T “TITLE=%t” -T “ALBUM=%g” -T “DATE=%y” -T “TRACKNUMBER=%n” -T “GENRE=%m” -T “COMMENT=%e” %j–picture=”%i”%j %s -o %d

TOC of the extracted CD

Track | Start | Length | Start sector | End sector
———————————————————
1 | 0:00.00 | 14:22.65 | 0 | 64714
2 | 14:22.65 | 8:27.50 | 64715 | 102789
3 | 22:50.40 | 4:35.00 | 102790 | 123414
4 | 27:25.40 | 9:23.35 | 123415 | 165674
5 | 36:49.00 | 8:06.50 | 165675 | 202174
6 | 44:55.50 | 13:42.40 | 202175 | 263864
7 | 58:38.15 | 9:27.60 | 263865 | 306449
8 | 68:06.00 | 7:40.72 | 306450 | 341021

Track 1

Filename E:\[ – Torrent – ]\[ Upload ]\Guns N’ Roses – 1992 – November Rain at the Tokyo Dome (22.02.1992)\CD2\01 – November Rain.wav

Pre-gap length 0:00:02.00

Peak level 100.0 %
Extraction speed 2.2 X
Track quality 100.0 %
Test CRC 0ABFF085
Copy CRC 0ABFF085
Cannot be verified as accurate (confidence 2) [910CFFC7], AccurateRip returned [574C4396]
Copy OK

Track 2

Filename E:\[ – Torrent – ]\[ Upload ]\Guns N’ Roses – 1992 – November Rain at the Tokyo Dome (22.02.1992)\CD2\02 – Sweet Child O’ Mine.wav

Peak level 100.0 %
Extraction speed 2.6 X
Track quality 100.0 %
Test CRC 619BDD4E
Copy CRC 619BDD4E
Cannot be verified as accurate (confidence 2) [41CC03BA], AccurateRip returned [F4ECE970]
Copy OK

Track 3

Filename E:\[ – Torrent – ]\[ Upload ]\Guns N’ Roses – 1992 – November Rain at the Tokyo Dome (22.02.1992)\CD2\03 – So Fine.wav

Peak level 91.1 %
Extraction speed 2.6 X
Track quality 100.0 %
Test CRC 91EDD3A4
Copy CRC 91EDD3A4
Cannot be verified as accurate (confidence 2) [487593FD], AccurateRip returned [774F0D0A]
Copy OK

Track 4

Filename E:\[ – Torrent – ]\[ Upload ]\Guns N’ Roses – 1992 – November Rain at the Tokyo Dome (22.02.1992)\CD2\04 – Rocket Queen.wav

Peak level 99.4 %
Extraction speed 3.0 X
Track quality 100.0 %
Test CRC 21635011
Copy CRC 21635011
Cannot be verified as accurate (confidence 2) [6B5C7BB2], AccurateRip returned [03F5049B]
Copy OK

Track 5

Filename E:\[ – Torrent – ]\[ Upload ]\Guns N’ Roses – 1992 – November Rain at the Tokyo Dome (22.02.1992)\CD2\05 – Move To The City.wav

Peak level 100.0 %
Extraction speed 3.2 X
Track quality 100.0 %
Test CRC D7AF11EA
Copy CRC D7AF11EA
Cannot be verified as accurate (confidence 2) [9926A0E1], AccurateRip returned [C66C4C85]
Copy OK

Track 6

Filename E:\[ – Torrent – ]\[ Upload ]\Guns N’ Roses – 1992 – November Rain at the Tokyo Dome (22.02.1992)\CD2\06 – Knockin’ On Heaven’s Door.wav

Peak level 100.0 %
Extraction speed 3.5 X
Track quality 99.9 %
Test CRC B4256BB4
Copy CRC B4256BB4
Cannot be verified as accurate (confidence 2) [1B0121E6], AccurateRip returned [36EC83E7]
Copy OK

Track 7

Filename E:\[ – Torrent – ]\[ Upload ]\Guns N’ Roses – 1992 – November Rain at the Tokyo Dome (22.02.1992)\CD2\07 – Estranged.wav

Peak level 99.9 %
Extraction speed 3.6 X
Track quality 99.9 %
Test CRC 28E5089E
Copy CRC 28E5089E
Cannot be verified as accurate (confidence 2) [F38340E3], AccurateRip returned [0080B0A6]
Copy OK

Track 8

Filename E:\[ – Torrent – ]\[ Upload ]\Guns N’ Roses – 1992 – November Rain at the Tokyo Dome (22.02.1992)\CD2\08 – Paradise City.wav

Peak level 87.0 %
Extraction speed 3.9 X
Track quality 100.0 %
Test CRC 41813E1C
Copy CRC 41813E1C
Cannot be verified as accurate (confidence 2) [A42CB527], AccurateRip returned [3E5539F8]
Copy OK

No tracks could be verified as accurate
You may have a different pressing from the one(s) in the database

No errors occurred

End of status report

==== Log checksum BEF63C694348CC8588849691760F6200A0366044324C5E3FFEF5FEC59047CF16 ====

Leave a Reply

Your email address will not be published. Required fields are marked *

Enter the text from the image below
 

This site uses Akismet to reduce spam. Learn how your comment data is processed.