Guns N’ Roses – Live Era ’87-’93




Artist: Guns N’ Roses
Year: 1999
Genre: Rock
Notes: Discogs
Add. Notes:
Cover incl.: Yes
Encoder: FLAC
Bitrate: ~900 kBit/s (44.1 kHz/16 Bit/s)
Log & Cue incl.: Yes
Size: 925 MB
Password: “slam” (without ” “)


All Downloads/Hosters are compatible

Download 1
Turbobit.net
Rapidgator.net
KatFile.com
UploadRar.com
Download 2
Turbobit.net
Rapidgator.net
KatFile.com
UploadRar.com

Tracklist:

1-1 - Nightrain - 5:18
1-2 - Mr. Brownstone - 5:42
1-3 - It's So Easy - 3:28
1-4 - Welcome To The Jungle - 5:08
1-5 - Dust N' Bones - 5:05
1-6 - My Michelle - 3:53
1-7 - You're Crazy - 4:45
1-8 - Used To Love Her - 4:17
1-9 - Patience - 6:42
1-10 - It's Alright - 3:07
1-11 - November Rain - 12:29
2-1 - Out Ta Get Me - 4:33
2-2 - Pretty Tied Up - 5:25
2-3 - Yesterdays - 3:52
2-4 - Move To The City - 8:00
2-5 - You Could Be Mine - 6:02
2-6 - Rocket Queen - 8:27
2-7 - Sweet Child O' Mine - 7:25
2-8 - Knockin' On Heaven's Door - 
7:27
2-9 - Don't Cry - 4:44
2-10 - Estranged - 9:52
2-11 - Paradise City - 7:21

EAC-Log, CUE-Sheed & NFO:

Click to open spoiler
foobar2000 1.3.16 / Dynamic Range Meter 1.1.1
log date: 2019-01-03 08:29:12

——————————————————————————–
Analyzed: Guns N’ Roses / Live Era ’87-’93
——————————————————————————–

DR Peak RMS Duration Track
——————————————————————————–
DR7 0.00 dB -7.86 dB 4:33 01-Out Ta Get Me
DR7 0.00 dB -7.98 dB 5:25 02-Pretty Tied Up
DR6 0.00 dB -8.23 dB 3:53 03-Yesterdays
DR7 0.00 dB -7.87 dB 8:00 04-Move To The City
DR6 0.00 dB -7.22 dB 6:02 05-You Could Be Mine
DR7 0.00 dB -8.54 dB 8:27 06-Rocket Queen
DR6 0.00 dB -7.24 dB 7:25 07-Sweet Child O’ Mine
DR8 0.00 dB -9.52 dB 7:27 08-Knockin’ On Heaven’s Door
DR8 0.00 dB -9.68 dB 4:45 09-Don’t Cry
DR7 0.00 dB -8.84 dB 9:52 10-Estranged
DR7 0.00 dB -8.64 dB 7:22 11-Paradise City
——————————————————————————–

Number of tracks: 11
Official DR value: DR7

Samplerate: 44100 Hz
Channels: 2
Bits per sample: 16
Bitrate: 974 kbps
Codec: FLAC
================================================================================

foobar2000 1.3.16 / Dynamic Range Meter 1.1.1
log date: 2019-01-03 08:28:37

——————————————————————————–
Analyzed: Guns N’ Roses / Live Era ’87-’93
——————————————————————————–

DR Peak RMS Duration Track
——————————————————————————–
DR6 0.00 dB -7.42 dB 5:18 01-Nightrain
DR7 0.00 dB -9.23 dB 5:42 02-Mr. Brownstone
DR6 0.00 dB -7.23 dB 3:29 03-It’s So Easy
DR7 0.00 dB -7.62 dB 5:09 04-Welcome To The Jungle
DR7 0.00 dB -7.65 dB 5:05 05-Dust N’ Bones
DR7 0.00 dB -8.36 dB 3:53 06-My Michelle
DR6 0.00 dB -7.22 dB 4:45 07-You’re Crazy
DR7 0.00 dB -8.95 dB 4:18 08-Used To Love Her
DR7 0.00 dB -9.17 dB 6:42 09-Patience
DR8 0.00 dB -10.54 dB 3:07 10-It’s Alright
DR7 0.00 dB -9.50 dB 12:30 11-November Rain
——————————————————————————–

Number of tracks: 11
Official DR value: DR7

Samplerate: 44100 Hz
Channels: 2
Bits per sample: 16
Bitrate: 901 kbps
Codec: FLAC
================================================================================

AUDIOCHECKER v2.0 beta (build 457) – by Dester – opdester@freemail.hu
~~~~~~~~~~~~~~~~~~~~~~~~~~~~~~~~~~
-=== DO NOT EDIT THIS FILE! ===-

Path: …\CD2

001 -=- 01 – Out Ta Get Me .flac -=- CDDA (100%)
002 -=- 02 – Pretty Tied Up .flac -=- CDDA (100%)
003 -=- 03 – Yesterdays .flac -=- CDDA (100%)
004 -=- 04 – Move To The City .flac -=- CDDA (100%)
005 -=- 05 – You Could Be Mine .flac -=- CDDA (100%)
006 -=- 06 – Rocket Queen .flac -=- CDDA (100%)
007 -=- 07 – Sweet Child O’ Mine .flac -=- CDDA (100%)
008 -=- 08 – Knockin’ On Heaven’s Door .flac -=- CDDA (100%)
009 -=- 09 – Don’t Cry .flac -=- CDDA (100%)
010 -=- 10 – Estranged .flac -=- CDDA (100%)
011 -=- 11 – Paradise City .flac -=- CDDA (100%)

Summary 100,00% CDDA

55275444

AUDIOCHECKER v2.0 beta (build 457) – by Dester – opdester@freemail.hu
~~~~~~~~~~~~~~~~~~~~~~~~~~~~~~~~~~
-=== DO NOT EDIT THIS FILE! ===-

Path: …\CD1

001 -=- 01 – Nightrain .flac -=- CDDA (100%)
002 -=- 02 – Mr. Brownstone .flac -=- CDDA (100%)
003 -=- 03 – It’s So Easy .flac -=- CDDA (100%)
004 -=- 04 – Welcome To The Jungle .flac -=- CDDA (100%)
005 -=- 05 – Dust N’ Bones .flac -=- CDDA (100%)
006 -=- 06 – My Michelle .flac -=- CDDA (100%)
007 -=- 07 – You’re Crazy .flac -=- CDDA (100%)
008 -=- 08 – Used To Love Her .flac -=- CDDA (100%)
009 -=- 09 – Patience .flac -=- CDDA (100%)
010 -=- 10 – It’s Alright .flac -=- CDDA (100%)
011 -=- 11 – November Rain .flac -=- CDDA (100%)

Summary 100,00% CDDA

92670068


Leave a Reply

Your email address will not be published. Required fields are marked *

This site uses Akismet to reduce spam. Learn how your comment data is processed.