Guns N’ Roses – Lies (Remastered)




Artist: Guns N’ Roses
Year: 1989/2011
Genre: Rock
Notes: Discogs
Add. Notes: Remastered
Encoder: FLAC
Bitrate: ~900 kBit/s (44.1 kHz/16 Bit/s)
Size: 240,73 MB
Password: “slam” (without ” “)


Crypted via FileCrypt.cc:

.

Crypted via Relink.to:

Tracklist:

1986
1 - Reckless Life - 3:23
2 - Nice Boys - 3:02
3 - Move To The City - 3:43
4 - Mama Kin - 3:55
1988
5 - Patience - 5:54
6 - Used To Love Her - 3:12
7 - You're Crazy - 4:09
8 - One In A Million - 6:09

EAC-Log, CUE-Sheed & NFO:

Click to open spoiler
Exact Audio Copy V0.99 prebeta 4 from 23. January 2008

EAC extraction logfile from 15. April 2008, 18:33

Guns N’ Roses / Lies (MFSL)

Used drive : PLEXTOR CD-R PX-W4012S Adapter: 0 ID: 4

Read mode : Secure
Utilize accurate stream : Yes
Defeat audio cache : Yes
Make use of C2 pointers : No

Read offset correction : 98
Overread into Lead-In and Lead-Out : No
Fill up missing offset samples with silence : Yes
Delete leading and trailing silent blocks : No
Null samples used in CRC calculations : Yes
Used interface : Native Win32 interface for Win NT & 2000
Gap handling : Appended to previous track

Used output format : User Defined Encoder
Selected bitrate : 768 kBit/s
Quality : High
Add ID3 tag : No
Command line compressor : C:\Program Files\FLAC\flac.exe
Additional command line options : -8 -V -T “artist=%a” -T “title=%t” -T “album=%g” -T “date=%y” -T “tracknumber=%n” -T “genre=%m” -T “comment=EAC 0.99 pb4 secure / FLAC 1.2.1b q8 / Gap Detection Method A (Secure)” %s

TOC of the extracted CD

Track | Start | Length | Start sector | End sector
———————————————————
1 | 0:00.00 | 3:22.72 | 0 | 15221
2 | 3:22.72 | 3:01.58 | 15222 | 28854
3 | 6:24.55 | 3:42.65 | 28855 | 45569
4 | 10:07.45 | 3:57.27 | 45570 | 63371
5 | 14:04.72 | 5:56.45 | 63372 | 90116
6 | 20:01.42 | 3:13.38 | 90117 | 104629
7 | 23:15.05 | 4:10.00 | 104630 | 123379
8 | 27:25.05 | 6:09.70 | 123380 | 151124

Track 1

Filename C:\Documents and Settings\daedalus\Desktop\scratch\Gun N’ Roses – Lies (1989) [FLAC] {MFSL}\01 – Reckless Life.wav

Pre-gap length 0:00:02.00

Peak level 96.8 %
Track quality 100.0 %
Test CRC 8E354189
Copy CRC 8E354189
Accurately ripped (confidence 2) [C8118008]
Copy OK

Track 2

Filename C:\Documents and Settings\daedalus\Desktop\scratch\Gun N’ Roses – Lies (1989) [FLAC] {MFSL}\02 – Nice Boys.wav

Peak level 100.0 %
Track quality 100.0 %
Test CRC C3164BC7
Copy CRC C3164BC7
Accurately ripped (confidence 2) [BF36425B]
Copy OK

Track 3

Filename C:\Documents and Settings\daedalus\Desktop\scratch\Gun N’ Roses – Lies (1989) [FLAC] {MFSL}\03 – Move To The City.wav

Peak level 100.0 %
Track quality 100.0 %
Test CRC 3C705CDB
Copy CRC 3C705CDB
Accurately ripped (confidence 2) [C9A21B27]
Copy OK

Track 4

Filename C:\Documents and Settings\daedalus\Desktop\scratch\Gun N’ Roses – Lies (1989) [FLAC] {MFSL}\04 – Mama Kin.wav

Peak level 98.3 %
Track quality 100.0 %
Test CRC B78A4CEF
Copy CRC B78A4CEF
Accurately ripped (confidence 2) [BE1CC8F5]
Copy OK

Track 5

Filename C:\Documents and Settings\daedalus\Desktop\scratch\Gun N’ Roses – Lies (1989) [FLAC] {MFSL}\05 – Patience.wav

Pre-gap length 0:00:01.62

Peak level 100.0 %
Track quality 99.9 %
Test CRC 229271F7
Copy CRC 229271F7
Accurately ripped (confidence 2) [60030DC8]
Copy OK

Track 6

Filename C:\Documents and Settings\daedalus\Desktop\scratch\Gun N’ Roses – Lies (1989) [FLAC] {MFSL}\06 – Used To Love Her.wav

Pre-gap length 0:00:01.50

Peak level 100.0 %
Track quality 100.0 %
Test CRC 2A205C19
Copy CRC 2A205C19
Accurately ripped (confidence 2) [4EB6B334]
Copy OK

Track 7

Filename C:\Documents and Settings\daedalus\Desktop\scratch\Gun N’ Roses – Lies (1989) [FLAC] {MFSL}\07 – You’re Crazy.wav

Pre-gap length 0:00:01.13

Peak level 96.2 %
Track quality 100.0 %
Test CRC A7F2D724
Copy CRC A7F2D724
Accurately ripped (confidence 2) [05E01B02]
Copy OK

Track 8

Filename C:\Documents and Settings\daedalus\Desktop\scratch\Gun N’ Roses – Lies (1989) [FLAC] {MFSL}\08 – One In A Million.wav

Pre-gap length 0:00:00.25

Peak level 98.8 %
Track quality 99.9 %
Test CRC 4CFA8FC3
Copy CRC 4CFA8FC3
Accurately ripped (confidence 2) [B699109C]
Copy OK

All tracks accurately ripped

No errors occurred

End of status report

REM GENRE Rock
REM DATE 1989
REM DISCID 6607DF08
REM COMMENT “ExactAudioCopy v0.99pb4”
PERFORMER “Guns N’ Roses”
TITLE “Lies (MFSL)”
FILE “01 – Reckless Life.wav” WAVE
TRACK 01 AUDIO
TITLE “Reckless Life”
PERFORMER “Guns N’ Roses”
INDEX 01 00:00:00
FILE “02 – Nice Boys.wav” WAVE
TRACK 02 AUDIO
TITLE “Nice Boys”
PERFORMER “Guns N’ Roses”
INDEX 01 00:00:00
FILE “03 – Move To The City.wav” WAVE
TRACK 03 AUDIO
TITLE “Move To The City”
PERFORMER “Guns N’ Roses”
INDEX 01 00:00:00
FILE “04 – Mama Kin.wav” WAVE
TRACK 04 AUDIO
TITLE “Mama Kin”
PERFORMER “Guns N’ Roses”
INDEX 01 00:00:00
TRACK 05 AUDIO
TITLE “Patience”
PERFORMER “Guns N’ Roses”
INDEX 00 03:55:40
FILE “05 – Patience.wav” WAVE
INDEX 01 00:00:00
TRACK 06 AUDIO
TITLE “Used To Love Her”
PERFORMER “Guns N’ Roses”
INDEX 00 05:54:70
FILE “06 – Used To Love Her.wav” WAVE
INDEX 01 00:00:00
TRACK 07 AUDIO
TITLE “You’re Crazy”
PERFORMER “Guns N’ Roses”
INDEX 00 03:12:25
FILE “07 – You’re Crazy.wav” WAVE
INDEX 01 00:00:00
TRACK 08 AUDIO
TITLE “One In A Million”
PERFORMER “Guns N’ Roses”
INDEX 00 04:09:50
FILE “08 – One In A Million.wav” WAVE
INDEX 01 00:00:00

Leave a Reply

Your email address will not be published. Required fields are marked *

This site uses Akismet to reduce spam. Learn how your comment data is processed.