Guns N’ Roses – Greatest Hits




No Cover available

Artist: Guns N’ Roses
Year: 2004
Genre: Rock
Notes: Discogs
Add. Notes:
Watch Songs on: YouTube
Cover incl.: Yes
Encoder: FLAC
Bitrate: ~1000 kBit/s (44.1 kHz/16 Bit/s)
Log & Cue incl.: Yes/Yes
Size: 546,8 MB
Password: “slam” (without ” “)


All Downloads/Hosters are compatible

Download 1
KatFile.com
Turbobit.net
FileFactory.com
Rapidgator.net
Download 2
KatFile.com
Turbobit.net
FileFactory.com
Rapidgator.net

Tracklist:

1 - Welcome To The Jungle - 4:31
2 - Sweet Child O' Mine - 5:55
3 - Patience - 5:55
4 - Paradise City - 6:46
5 - Knockin' On Heaven's Door - 5:36
6 - Civil War - 7:41
7 - You Could Be Mine - 5:44
8 - Don't Cry (Original) - 4:44
9 - November Rain - 8:57
10 - Live And Let Die - 3:02
11 - Yesterdays - 3:15
12 - Ain't It Fun - 5:07
13 - Since I Don't Have You - 4:19
14 - Sympathy For The Devil - 7:35

EAC-Log, CUE-Sheed & NFO:

Click to open spoiler
Exact Audio Copy V0.99 prebeta 5 from 4. May 2009

EAC extraction logfile from 4. April 2010, 7:33

Guns N’ Roses / Greatest Hits

Used drive : PLEXTOR DVDR PX-716A Adapter: 4 ID: 0

Read mode : Secure
Utilize accurate stream : Yes
Defeat audio cache : Yes
Make use of C2 pointers : No

Read offset correction : 30
Overread into Lead-In and Lead-Out : No
Fill up missing offset samples with silence : Yes
Delete leading and trailing silent blocks : No
Null samples used in CRC calculations : Yes
Used interface : Native Win32 interface for Win NT & 2000
Gap handling : Appended to previous track

Used output format : User Defined Encoder
Selected bitrate : 1024 kBit/s
Quality : High
Add ID3 tag : No
Command line compressor : C:\Program Files (x86)\Exact Audio Copy\FLAC\FLAC.EXE
Additional command line options : -6 -V -T “ARTIST=%a” -T “TITLE=%t” -T “ALBUM=%g” -T “DATE=%y” -T “TRACKNUMBER=%n” -T “GENRE=%m” -T “COMMENT=%e” %s -o %d

TOC of the extracted CD

Track | Start | Length | Start sector | End sector
———————————————————
1 | 0:00.00 | 4:31.65 | 0 | 20389
2 | 4:31.65 | 5:55.20 | 20390 | 47034
3 | 10:27.10 | 5:56.07 | 47035 | 73741
4 | 16:23.17 | 6:47.37 | 73742 | 104303
5 | 23:10.54 | 5:36.11 | 104304 | 129514
6 | 28:46.65 | 7:42.20 | 129515 | 164184
7 | 36:29.10 | 5:43.50 | 164185 | 189959
8 | 42:12.60 | 4:45.52 | 189960 | 211386
9 | 46:58.37 | 8:56.72 | 211387 | 251658
10 | 55:55.34 | 3:02.16 | 251659 | 265324
11 | 58:57.50 | 3:16.05 | 265325 | 280029
12 | 62:13.55 | 5:07.62 | 280030 | 303116
13 | 67:21.42 | 4:19.20 | 303117 | 322561
14 | 71:40.62 | 7:35.42 | 322562 | 356728

Track 1

Filename C:\Users\Admin\Documents\EAC Rips\01. Guns N’ Roses – Welcome To The Jungle.wav

Pre-gap length 0:00:02.00

Peak level 98.8 %
Track quality 100.0 %
Test CRC 81FE4852
Copy CRC 81FE4852
Accurately ripped (confidence 44) [639B180F]
Copy OK

Track 2

Filename C:\Users\Admin\Documents\EAC Rips\02. Guns N’ Roses – Sweet Child O’ Mine.wav

Peak level 98.8 %
Track quality 100.0 %
Test CRC 62F36B2C
Copy CRC 62F36B2C
Accurately ripped (confidence 43) [8FE44B89]
Copy OK

Track 3

Filename C:\Users\Admin\Documents\EAC Rips\03. Guns N’ Roses – Patience.wav

Peak level 80.8 %
Track quality 100.0 %
Test CRC 41D6082C
Copy CRC 41D6082C
Accurately ripped (confidence 43) [FDDF3100]
Copy OK

Track 4

Filename C:\Users\Admin\Documents\EAC Rips\04. Guns N’ Roses – Paradise City.wav

Peak level 98.8 %
Track quality 100.0 %
Test CRC 945EAF46
Copy CRC 945EAF46
Accurately ripped (confidence 44) [0C9B884B]
Copy OK

Track 5

Filename C:\Users\Admin\Documents\EAC Rips\05. Guns N’ Roses – Knockin’ On Heaven’s Door.wav

Pre-gap length 0:00:01.22

Peak level 98.8 %
Track quality 100.0 %
Test CRC 26FB8B3E
Copy CRC 26FB8B3E
Accurately ripped (confidence 43) [AC42F7EF]
Copy OK

Track 6

Filename C:\Users\Admin\Documents\EAC Rips\06. Guns N’ Roses – Civil War.wav

Peak level 98.8 %
Track quality 100.0 %
Test CRC 40C3BE48
Copy CRC 40C3BE48
Accurately ripped (confidence 43) [B53DCFE2]
Copy OK

Track 7

Filename C:\Users\Admin\Documents\EAC Rips\07. Guns N’ Roses – You Could Be Mine.wav

Pre-gap length 0:00:01.58

Peak level 98.8 %
Track quality 99.9 %
Test CRC E9882C9A
Copy CRC E9882C9A
Accurately ripped (confidence 44) [B38D593B]
Copy OK

Track 8

Filename C:\Users\Admin\Documents\EAC Rips\08. Guns N’ Roses – Don’t Cry (Original).wav

Peak level 98.8 %
Track quality 100.0 %
Test CRC 54B3FE28
Copy CRC 54B3FE28
Accurately ripped (confidence 43) [2764F0F9]
Copy OK

Track 9

Filename C:\Users\Admin\Documents\EAC Rips\09. Guns N’ Roses – November Rain.wav

Pre-gap length 0:00:01.45

Peak level 98.8 %
Track quality 99.9 %
Test CRC 8FACE713
Copy CRC 8FACE713
Accurately ripped (confidence 43) [4D7841E3]
Copy OK

Track 10

Filename C:\Users\Admin\Documents\EAC Rips\10. Guns N’ Roses – Live And Let Die.wav

Peak level 98.8 %
Track quality 100.0 %
Test CRC C44DF87D
Copy CRC C44DF87D
Accurately ripped (confidence 42) [4B6B4F5C]
Copy OK

Track 11

Filename C:\Users\Admin\Documents\EAC Rips\11. Guns N’ Roses – Yesterdays.wav

Peak level 98.8 %
Track quality 100.0 %
Test CRC F73F0CCF
Copy CRC F73F0CCF
Accurately ripped (confidence 42) [EDDBBDE8]
Copy OK

Track 12

Filename C:\Users\Admin\Documents\EAC Rips\12. Guns N’ Roses – Ain’t It Fun.wav

Pre-gap length 0:00:01.43

Peak level 85.4 %
Track quality 99.9 %
Test CRC 38B1A98B
Copy CRC 38B1A98B
Accurately ripped (confidence 42) [85673586]
Copy OK

Track 13

Filename C:\Users\Admin\Documents\EAC Rips\13. Guns N’ Roses – Since I Don’t Have You.wav

Pre-gap length 0:00:01.20

Peak level 93.2 %
Track quality 100.0 %
Test CRC B1BB2EC5
Copy CRC B1BB2EC5
Accurately ripped (confidence 42) [33202CD9]
Copy OK

Track 14

Filename C:\Users\Admin\Documents\EAC Rips\14. Guns N’ Roses – Sympathy For The Devil.wav

Peak level 94.2 %
Track quality 100.0 %
Test CRC A3242CA1
Copy CRC A3242CA1
Accurately ripped (confidence 37) [74C9E154]
Copy OK

All tracks accurately ripped

No errors occurred

End of status report

REM GENRE “Hard Rock”
REM DATE 2004
REM DISCID C912940E
REM COMMENT “ExactAudioCopy v0.99pb5”
CATALOG 0602498613696
PERFORMER “Guns N’ Roses”
TITLE “Greatest Hits”
FILE “01. Guns N’ Roses – Welcome To The Jungle.wav” WAVE
TRACK 01 AUDIO
TITLE “Welcome To The Jungle”
PERFORMER “Guns N’ Roses”
ISRC USGF18714801
INDEX 01 00:00:00
FILE “02. Guns N’ Roses – Sweet Child O’ Mine.wav” WAVE
TRACK 02 AUDIO
TITLE “Sweet Child O’ Mine”
PERFORMER “Guns N’ Roses”
ISRC USGF18714809
INDEX 01 00:00:00
FILE “03. Guns N’ Roses – Patience.wav” WAVE
TRACK 03 AUDIO
TITLE “Patience”
PERFORMER “Guns N’ Roses”
ISRC USGF18819805
INDEX 01 00:00:00
FILE “04. Guns N’ Roses – Paradise City.wav” WAVE
TRACK 04 AUDIO
TITLE “Paradise City”
PERFORMER “Guns N’ Roses”
ISRC USGF18714806
INDEX 01 00:00:00
TRACK 05 AUDIO
TITLE “Knockin’ On Heaven’s Door”
PERFORMER “Guns N’ Roses”
ISRC USGF19142004
INDEX 00 06:46:15
FILE “05. Guns N’ Roses – Knockin’ On Heaven’s Door.wav” WAVE
INDEX 01 00:00:00
FILE “06. Guns N’ Roses – Civil War.wav” WAVE
TRACK 06 AUDIO
TITLE “Civil War”
PERFORMER “Guns N’ Roses”
ISRC USGF19142001
INDEX 01 00:00:00
TRACK 07 AUDIO
TITLE “You Could Be Mine”
PERFORMER “Guns N’ Roses”
ISRC USGF19142012
INDEX 00 07:40:37
FILE “07. Guns N’ Roses – You Could Be Mine.wav” WAVE
INDEX 01 00:00:00
FILE “08. Guns N’ Roses – Don’t Cry (Original).wav” WAVE
TRACK 08 AUDIO
TITLE “Don’t Cry (Original)”
PERFORMER “Guns N’ Roses”
ISRC USGF19141504
INDEX 01 00:00:00
TRACK 09 AUDIO
TITLE “November Rain”
PERFORMER “Guns N’ Roses”
ISRC USGF19141510
INDEX 00 04:44:07
FILE “09. Guns N’ Roses – November Rain.wav” WAVE
INDEX 01 00:00:00
FILE “10. Guns N’ Roses – Live And Let Die.wav” WAVE
TRACK 10 AUDIO
TITLE “Live And Let Die”
PERFORMER “Guns N’ Roses”
ISRC USGF19141503
INDEX 01 00:00:00
FILE “11. Guns N’ Roses – Yesterdays.wav” WAVE
TRACK 11 AUDIO
TITLE “Yesterdays”
PERFORMER “Guns N’ Roses”
ISRC USGF19142003
INDEX 01 00:00:00
TRACK 12 AUDIO
TITLE “Ain’t It Fun”
PERFORMER “Guns N’ Roses”
ISRC USIR10312448
INDEX 00 03:14:37
FILE “12. Guns N’ Roses – Ain’t It Fun.wav” WAVE
INDEX 01 00:00:00
TRACK 13 AUDIO
TITLE “Since I Don’t Have You”
PERFORMER “Guns N’ Roses”
ISRC USGF19361701
INDEX 00 05:06:42
FILE “13. Guns N’ Roses – Since I Don’t Have You.wav” WAVE
INDEX 01 00:00:00
FILE “14. Guns N’ Roses – Sympathy For The Devil.wav” WAVE
TRACK 14 AUDIO
TITLE “Sympathy For The Devil”
PERFORMER “Guns N’ Roses”
ISRC USIR10312449
INDEX 01 00:00:00


Leave a Reply

Your email address will not be published. Required fields are marked *

This site uses Akismet to reduce spam. Learn how your comment data is processed.