Guns N’ Roses – Chinese Democracy




No Cover available

Artist: Guns N’ Roses
Year: 2008
Genre: Rock
Notes: Discogs
Add. Notes:
Watch Songs on: YouTube
Cover incl.: No
Encoder: FLAC
Bitrate: ~900 kBit/s (44.1 kHz/16 Bit/s)
Log & Cue incl.: Yes
Size: 466,5 MB
Password: “slam” (without ” “)


All Downloads/Hosters are compatible

Download 1
KatFile.com
Turbobit.net
FileFactory.com
Rapidgator.net
Download 2
KatFile.com
Turbobit.net
FileFactory.com
Rapidgator.net

Tracklist:

1 - Chinese Democracy - 4:43
2 - Shackler's Revenge - 3:36
3 - Better - 4:58
4 - Street Of Dreams - 4:46
5 - If The World - 4:54
6 - There Was A Time - 6:41
7 - Catcher In The Rye - 5:52
8 - Scraped - 3:30
9 - Riad N' The Bedouins - 4:10
10 - Sorry - 6:14
11 - I.R.S. - 4:28
12 - Madagascar - 5:37
13 - This I Love - 5:34
14 - Prostitute - 6:15

EAC-Log, CUE-Sheed & NFO:

Click to open spoiler
EAC extraction logfile from 18. November 2008, 13:12 for CD
Guns n’ Roses / Chinese Democracy

Used drive : HL-DT-STRW/DVD GCC-4480B Adapter: 1 ID: 0
Read mode : Secure with NO C2, accurate stream, disable cache
Read offset correction : 6
Overread into Lead-In and Lead-Out : No

Used output format : C:\Program Files\Exact Audio Copy\bin\flac.exe (User Defined Encoder)
192 kBit/s
Additional command line options : -V -8 -T “artist=%a” -T “title=%t” -T “album=%g” -T “date=%y” -T “tracknumber=%n” -T “genre=%m” %s

Other options :
Fill up missing offset samples with silence : Yes
Delete leading and trailing silent blocks : No
Installed external ASPI interface

Track 1
Filename C:\Documents and Settings\David\Desktop\CHINESE DEMOCRACY FLAC\01 – Guns n’ Roses – Chinese Democracy.wav

Pre-gap length 0:00:02.00

Peak level 100.0 %
Track quality 99.9 %
Copy CRC A12F4BA8
Copy OK

Track 2
Filename C:\Documents and Settings\David\Desktop\CHINESE DEMOCRACY FLAC\02 – Guns n’ Roses – Shackler’s Revenge.wav

Peak level 100.0 %
Track quality 100.0 %
Copy CRC 09868D12
Copy OK

Track 3
Filename C:\Documents and Settings\David\Desktop\CHINESE DEMOCRACY FLAC\03 – Guns n’ Roses – Better.wav

Pre-gap length 0:00:00.33

Peak level 100.0 %
Track quality 100.0 %
Copy CRC 2500F4D0
Copy OK

Track 4
Filename C:\Documents and Settings\David\Desktop\CHINESE DEMOCRACY FLAC\04 – Guns n’ Roses – Street of Dreams.wav

Pre-gap length 0:00:01.49

Peak level 100.0 %
Track quality 100.0 %
Copy CRC CCB7EC37
Copy OK

Track 5
Filename C:\Documents and Settings\David\Desktop\CHINESE DEMOCRACY FLAC\05 – Guns n’ Roses – If the world.wav

Pre-gap length 0:00:00.40

Peak level 100.0 %
Track quality 100.0 %
Copy CRC 5BB7B1DC
Copy OK

Track 6
Filename C:\Documents and Settings\David\Desktop\CHINESE DEMOCRACY FLAC\06 – Guns n’ Roses – There was a time.wav

Pre-gap length 0:00:00.92

Peak level 100.0 %
Track quality 99.9 %
Copy CRC B219F338
Copy OK

Track 7
Filename C:\Documents and Settings\David\Desktop\CHINESE DEMOCRACY FLAC\07 – Guns n’ Roses – Catcher in the rye.wav

Pre-gap length 0:00:00.44

Peak level 100.0 %
Track quality 99.9 %
Copy CRC A665245F
Copy OK

Track 8
Filename C:\Documents and Settings\David\Desktop\CHINESE DEMOCRACY FLAC\08 – Guns n’ Roses – Scraped.wav

Peak level 100.0 %
Track quality 100.0 %
Copy CRC 283D9CC0
Copy OK

Track 9
Filename C:\Documents and Settings\David\Desktop\CHINESE DEMOCRACY FLAC\09 – Guns n’ Roses – Riad n’ the bedouins.wav

Pre-gap length 0:00:00.37

Peak level 100.0 %
Track quality 100.0 %
Copy CRC 0C3256B0
Copy OK

Track 10
Filename C:\Documents and Settings\David\Desktop\CHINESE DEMOCRACY FLAC\10 – Guns n’ Roses – Sorry.wav

Peak level 100.0 %
Track quality 99.9 %
Copy CRC CB25DE68
Copy OK

Track 11
Filename C:\Documents and Settings\David\Desktop\CHINESE DEMOCRACY FLAC\11 – Guns n’ Roses – I.R.S..wav

Pre-gap length 0:00:00.32

Peak level 100.0 %
Track quality 100.0 %
Copy CRC 9E8F4226
Copy OK

Track 12
Filename C:\Documents and Settings\David\Desktop\CHINESE DEMOCRACY FLAC\12 – Guns n’ Roses – Madagascar.wav

Pre-gap length 0:00:00.90

Peak level 100.0 %
Track quality 100.0 %
Copy CRC EA81D770
Copy OK

Track 13
Filename C:\Documents and Settings\David\Desktop\CHINESE DEMOCRACY FLAC\13 – Guns n’ Roses – This I love.wav

Peak level 100.0 %
Track quality 99.9 %
Copy CRC C9A1C303
Copy OK

Track 14
Filename C:\Documents and Settings\David\Desktop\CHINESE DEMOCRACY FLAC\14 – Guns n’ Roses – Prostitute.wav

Peak level 100.0 %
Track quality 100.0 %
Copy CRC 4855E574
Copy OK

No errors occured

End of status report

REM GENRE “Hard Rock”
REM DATE 2008
REM DISCID C510BE0E
REM COMMENT “ExactAudioCopy v0.95b3”
PERFORMER “Guns n’ Roses”
TITLE “Chinese Democracy”
FILE “01 – Guns n’ Roses – Chinese Democracy.wav” WAVE
TRACK 01 AUDIO
TITLE “Chinese Democracy”
PERFORMER “Guns n’ Roses”
INDEX 01 00:00:00
FILE “02 – Guns n’ Roses – Shackler’s Revenge.wav” WAVE
TRACK 02 AUDIO
TITLE “Shackler’s Revenge”
PERFORMER “Guns n’ Roses”
INDEX 01 00:00:00
FILE “03 – Guns n’ Roses – Better.wav” WAVE
TRACK 03 AUDIO
TITLE “Better”
PERFORMER “Guns n’ Roses”
PREGAP 00:00:25
INDEX 01 00:00:00
FILE “04 – Guns n’ Roses – Street of Dreams.wav” WAVE
TRACK 04 AUDIO
TITLE “Street of Dreams”
PERFORMER “Guns n’ Roses”
PREGAP 00:01:37
INDEX 01 00:00:00
FILE “05 – Guns n’ Roses – If the world.wav” WAVE
TRACK 05 AUDIO
TITLE “If the world”
PERFORMER “Guns n’ Roses”
PREGAP 00:00:30
INDEX 01 00:00:00
FILE “06 – Guns n’ Roses – There was a time.wav” WAVE
TRACK 06 AUDIO
TITLE “There was a time”
PERFORMER “Guns n’ Roses”
PREGAP 00:00:69
INDEX 01 00:00:00
FILE “07 – Guns n’ Roses – Catcher in the rye.wav” WAVE
TRACK 07 AUDIO
TITLE “Catcher in the rye”
PERFORMER “Guns n’ Roses”
PREGAP 00:00:33
INDEX 01 00:00:00
FILE “08 – Guns n’ Roses – Scraped.wav” WAVE
TRACK 08 AUDIO
TITLE “Scraped”
PERFORMER “Guns n’ Roses”
INDEX 01 00:00:00
FILE “09 – Guns n’ Roses – Riad n’ the bedouins.wav” WAVE
TRACK 09 AUDIO
TITLE “Riad n’ the bedouins”
PERFORMER “Guns n’ Roses”
PREGAP 00:00:28
INDEX 01 00:00:00
FILE “10 – Guns n’ Roses – Sorry.wav” WAVE
TRACK 10 AUDIO
TITLE “Sorry”
PERFORMER “Guns n’ Roses”
INDEX 01 00:00:00
FILE “11 – Guns n’ Roses – I.R.S..wav” WAVE
TRACK 11 AUDIO
TITLE “I.R.S.”
PERFORMER “Guns n’ Roses”
PREGAP 00:00:24
INDEX 01 00:00:00
FILE “12 – Guns n’ Roses – Madagascar.wav” WAVE
TRACK 12 AUDIO
TITLE “Madagascar”
PERFORMER “Guns n’ Roses”
PREGAP 00:00:68
INDEX 01 00:00:00
FILE “13 – Guns n’ Roses – This I love.wav” WAVE
TRACK 13 AUDIO
TITLE “This I love”
PERFORMER “Guns n’ Roses”
INDEX 01 00:00:00
FILE “14 – Guns n’ Roses – Prostitute.wav” WAVE
TRACK 14 AUDIO
TITLE “Prostitute”
PERFORMER “Guns n’ Roses”
INDEX 01 00:00:00


Leave a Reply

Your email address will not be published. Required fields are marked *

This site uses Akismet to reduce spam. Learn how your comment data is processed.