Guns N’ Roses – Appetite for Destruction




No Cover available

Artist: Guns N’ Roses
Year: 2018
Genre: Rock
Notes: Discogs
Add. Notes:
Watch Songs on: YouTube
Cover incl.: No
Encoder: FLAC
Bitrate: ~800 kBit/s (44.1 kHz/16 Bit/s)
Log & Cue incl.: Yes/Yes
Size: 384,7 MB
Password: “slam” (without ” “)


All Downloads/Hosters are compatible

Download 1
KatFile.com
Turbobit.net
FileFactory.com
Rapidgator.net
Download 2
KatFile.com
Turbobit.net
FileFactory.com
Rapidgator.net

Tracklist:

1 Welcome To The Jungle 4:31
2 It's So Easy 3:21
3 Nightrain 4:26
4 Out Ta Get Me 4:20
5 Mr. Brownstone 3:46
6 Paradise City 6:46
7 My Michelle 3:39
8 Think About You 3:50
9 Sweet Child O'Mine 5:55
10 You're Crazy 3:25
11 Anything Goes 
12 Rocket Queen 6:13

EAC-Log, CUE-Sheed & NFO:

Click to open spoiler
Exact Audio Copy V0.99 prebeta 5 from 4. May 2009

EAC extraction logfile from 4. April 2010, 2:55

Guns N’ Roses / Appetite For Destruction

Used drive : PLEXTOR DVDR PX-716A Adapter: 4 ID: 0

Read mode : Secure
Utilize accurate stream : Yes
Defeat audio cache : Yes
Make use of C2 pointers : No

Read offset correction : 30
Overread into Lead-In and Lead-Out : No
Fill up missing offset samples with silence : Yes
Delete leading and trailing silent blocks : No
Null samples used in CRC calculations : Yes
Used interface : Native Win32 interface for Win NT & 2000
Gap handling : Appended to previous track

Used output format : User Defined Encoder
Selected bitrate : 1024 kBit/s
Quality : High
Add ID3 tag : No
Command line compressor : C:\Program Files (x86)\Exact Audio Copy\FLAC\FLAC.EXE
Additional command line options : -6 -V -T “ARTIST=%a” -T “TITLE=%t” -T “ALBUM=%g” -T “DATE=%y” -T “TRACKNUMBER=%n” -T “GENRE=%m” -T “COMMENT=%e” %s -o %d

TOC of the extracted CD

Track | Start | Length | Start sector | End sector
———————————————————
1 | 0:00.00 | 4:33.45 | 0 | 20519
2 | 4:33.45 | 3:22.67 | 20520 | 35736
3 | 7:56.37 | 4:28.38 | 35737 | 55874
4 | 12:25.00 | 4:23.65 | 55875 | 75664
5 | 16:48.65 | 3:48.65 | 75665 | 92829
6 | 20:37.55 | 6:46.25 | 92830 | 123304
7 | 27:24.05 | 3:39.70 | 123305 | 139799
8 | 31:04.00 | 3:51.47 | 139800 | 157171
9 | 34:55.47 | 5:56.30 | 157172 | 183901
10 | 40:52.02 | 3:17.15 | 183902 | 198691
11 | 44:09.17 | 3:26.28 | 198692 | 214169
12 | 47:35.45 | 6:13.05 | 214170 | 242149

Track 1

Filename C:\Users\Admin\Documents\EAC Rips\01. Guns N’ Roses – Welcome To The Jungle.wav

Pre-gap length 0:00:02.00

Peak level 95.5 %
Track quality 99.9 %
Test CRC 877D76CB
Copy CRC 877D76CB
Accurately ripped (confidence 3) [C5DE6D7F]
Copy OK

Track 2

Filename C:\Users\Admin\Documents\EAC Rips\02. Guns N’ Roses – It’s So Easy.wav

Pre-gap length 0:00:03.40

Peak level 93.7 %
Track quality 99.9 %
Test CRC 5B24863E
Copy CRC 5B24863E
Accurately ripped (confidence 3) [24BBEC91]
Copy OK

Track 3

Filename C:\Users\Admin\Documents\EAC Rips\03. Guns N’ Roses – Nightrain.wav

Pre-gap length 0:00:01.07

Peak level 93.8 %
Track quality 100.0 %
Test CRC A248793B
Copy CRC A248793B
Accurately ripped (confidence 3) [AFA6CB5E]
Copy OK

Track 4

Filename C:\Users\Admin\Documents\EAC Rips\04. Guns N’ Roses – Out Ta Get Me.wav

Pre-gap length 0:00:02.48

Peak level 91.5 %
Track quality 100.0 %
Test CRC A9DF3E3B
Copy CRC A9DF3E3B
Accurately ripped (confidence 3) [A334BF63]
Copy OK

Track 5

Filename C:\Users\Admin\Documents\EAC Rips\05. Guns N’ Roses – Mr. Brownstone.wav

Pre-gap length 0:00:04.65

Peak level 95.5 %
Track quality 100.0 %
Test CRC CC0C4CEC
Copy CRC CC0C4CEC
Accurately ripped (confidence 3) [202D1FC4]
Copy OK

Track 6

Filename C:\Users\Admin\Documents\EAC Rips\06. Guns N’ Roses – Paradise City.wav

Pre-gap length 0:00:04.13

Peak level 95.5 %
Track quality 100.0 %
Test CRC 3FA258DB
Copy CRC 3FA258DB
Accurately ripped (confidence 3) [8C1F4602]
Copy OK

Track 7

Filename C:\Users\Admin\Documents\EAC Rips\07. Guns N’ Roses – My Michelle.wav

Pre-gap length 0:00:00.53

Peak level 94.1 %
Track quality 100.0 %
Test CRC 24395E6F
Copy CRC 24395E6F
Accurately ripped (confidence 3) [1E16BFC8]
Copy OK

Track 8

Filename C:\Users\Admin\Documents\EAC Rips\08. Guns N’ Roses – Think About You.wav

Pre-gap length 0:00:02.08

Peak level 95.5 %
Track quality 100.0 %
Test CRC 517A0C2C
Copy CRC 517A0C2C
Accurately ripped (confidence 3) [C97093F5]
Copy OK

Track 9

Filename C:\Users\Admin\Documents\EAC Rips\09. Guns N’ Roses – Sweet Child O’ Mine.wav

Pre-gap length 0:00:02.32

Peak level 95.5 %
Track quality 100.0 %
Test CRC D576D884
Copy CRC D576D884
Accurately ripped (confidence 3) [9E71728A]
Copy OK

Track 10

Filename C:\Users\Admin\Documents\EAC Rips\10. Guns N’ Roses – You’re Crazy.wav

Pre-gap length 0:00:02.57

Peak level 94.1 %
Track quality 100.0 %
Test CRC B91A4210
Copy CRC B91A4210
Accurately ripped (confidence 3) [F24DBA31]
Copy OK

Track 11

Filename C:\Users\Admin\Documents\EAC Rips\11. Guns N’ Roses – Anything Goes.wav

Pre-gap length 0:00:01.60

Peak level 95.5 %
Track quality 100.0 %
Test CRC 6593A2BD
Copy CRC 6593A2BD
Accurately ripped (confidence 3) [74D573D3]
Copy OK

Track 12

Filename C:\Users\Admin\Documents\EAC Rips\12. Guns N’ Roses – Rocket Queen.wav

Pre-gap length 0:00:01.35

Peak level 95.5 %
Track quality 100.0 %
Test CRC 684C2F53
Copy CRC 684C2F53
Accurately ripped (confidence 3) [C174A7A7]
Copy OK

All tracks accurately ripped

No errors occurred

End of status report

REM GENRE Rock
REM DATE 1987
REM DISCID B10C9C0C
REM COMMENT “ExactAudioCopy v0.99pb5”
PERFORMER “Guns N’ Roses”
TITLE “Appetite For Destruction”
FILE “01. Guns N’ Roses – Welcome To The Jungle.wav” WAVE
TRACK 01 AUDIO
TITLE “Welcome To The Jungle”
PERFORMER “Guns N’ Roses”
INDEX 01 00:00:00
TRACK 02 AUDIO
TITLE “It’s So Easy”
PERFORMER “Guns N’ Roses”
INDEX 00 04:30:05
FILE “02. Guns N’ Roses – It’s So Easy.wav” WAVE
INDEX 01 00:00:00
TRACK 03 AUDIO
TITLE “Nightrain”
PERFORMER “Guns N’ Roses”
INDEX 00 03:21:60
FILE “03. Guns N’ Roses – Nightrain.wav” WAVE
INDEX 01 00:00:00
TRACK 04 AUDIO
TITLE “Out Ta Get Me”
PERFORMER “Guns N’ Roses”
INDEX 00 04:25:65
FILE “04. Guns N’ Roses – Out Ta Get Me.wav” WAVE
INDEX 01 00:00:00
TRACK 05 AUDIO
TITLE “Mr. Brownstone”
PERFORMER “Guns N’ Roses”
INDEX 00 04:19:00
FILE “05. Guns N’ Roses – Mr. Brownstone.wav” WAVE
INDEX 01 00:00:00
TRACK 06 AUDIO
TITLE “Paradise City”
PERFORMER “Guns N’ Roses”
INDEX 00 03:44:52
FILE “06. Guns N’ Roses – Paradise City.wav” WAVE
INDEX 01 00:00:00
TRACK 07 AUDIO
TITLE “My Michelle”
PERFORMER “Guns N’ Roses”
INDEX 00 06:45:47
FILE “07. Guns N’ Roses – My Michelle.wav” WAVE
INDEX 01 00:00:00
TRACK 08 AUDIO
TITLE “Think About You”
PERFORMER “Guns N’ Roses”
INDEX 00 03:37:62
FILE “08. Guns N’ Roses – Think About You.wav” WAVE
INDEX 01 00:00:00
TRACK 09 AUDIO
TITLE “Sweet Child O’ Mine”
PERFORMER “Guns N’ Roses”
INDEX 00 03:49:15
FILE “09. Guns N’ Roses – Sweet Child O’ Mine.wav” WAVE
INDEX 01 00:00:00
TRACK 10 AUDIO
TITLE “You’re Crazy”
PERFORMER “Guns N’ Roses”
INDEX 00 05:53:48
FILE “10. Guns N’ Roses – You’re Crazy.wav” WAVE
INDEX 01 00:00:00
TRACK 11 AUDIO
TITLE “Anything Goes”
PERFORMER “Guns N’ Roses”
INDEX 00 03:15:30
FILE “11. Guns N’ Roses – Anything Goes.wav” WAVE
INDEX 01 00:00:00
TRACK 12 AUDIO
TITLE “Rocket Queen”
PERFORMER “Guns N’ Roses”
INDEX 00 03:24:68
FILE “12. Guns N’ Roses – Rocket Queen.wav” WAVE
INDEX 01 00:00:00


Leave a Reply

Your email address will not be published. Required fields are marked *

This site uses Akismet to reduce spam. Learn how your comment data is processed.