Guano Apes – Walking On A Thin Line (Limited Edition)




Artist: Guano Apes
Year: 2003
Genre: Alternative
Notes: Discogs
Add. Notes: Limited Edition
Cover incl.: Yes
Encoder: ALAC
Bitrate: ~1000 kBit/s (44.1 kHz/16 Bit/s)
Log & Cue incl.: Yes
Size: 415,31 MB
Password: “slam” (without ” “)


All Downloads/Hosters are compatible

Download 1
Turbobit.net
Rapidgator.net
KatFile.com
UploadRar.com
Download 2
Turbobit.net
Rapidgator.net
KatFile.com
UploadRar.com
Download 3
Turbobit.net
Rapidgator.net
KatFile.com
UploadRar.com

Tracklist:

1 - You Can't Stop Me - 3:10
2 - Dick - 2:43
3 - Kiss The Dawn - 5:19
4 - Pretty In Scarlett - 4:07
5 - Diokhan - 3:33
6 - Electric Nights - 3:26
7 - Quietly - 3:38
8 - High - 3:24
9 - Sing That Song - 3:02
10 - Scratch The Pitch - 3:48
11 - Plastic Mouth - 4:04
12 - Counting The Days - 3:38
13 - Storm - 3:47
14 - Sugar Skin - 4:11

EAC-Log, CUE-Sheed & NFO:

Click to open spoiler
Exact Audio Copy V0.99 prebeta 4 from 23. January 2008

EAC extraction logfile from 5. May 2009, 4:37

Guano Apes / Walking On A Thin Line

Used drive : TSSTcorpCDDVDW TS-L633A Adapter: 0 ID: 1

Read mode : Secure
Utilize accurate stream : Yes
Defeat audio cache : Yes
Make use of C2 pointers : No

Read offset correction : 6
Overread into Lead-In and Lead-Out : No
Fill up missing offset samples with silence : Yes
Delete leading and trailing silent blocks : No
Null samples used in CRC calculations : Yes
Used interface : Native Win32 interface for Win NT & 2000
Gap handling : Appended to previous track

Used output format : User Defined Encoder
Selected bitrate : 320 kBit/s
Quality : High
Add ID3 tag : No
Command line compressor : C:\Program Files\Exact Audio Copy\FLAC\FLAC.EXE
Additional command line options : -V -8 -T “artist=%a” -T “title=%t” -T “album=%g” -T “date=%y” -T “tracknumber=%n” -T “genre=%m” %s

TOC of the extracted CD

Track | Start | Length | Start sector | End sector
———————————————————
1 | 0:00.00 | 3:11.01 | 0 | 14325
2 | 3:11.01 | 2:42.68 | 14326 | 26543
3 | 5:53.69 | 5:19.54 | 26544 | 50522
4 | 11:13.48 | 4:06.35 | 50523 | 69007
5 | 15:20.08 | 3:34.16 | 69008 | 85073
6 | 18:54.24 | 3:26.14 | 85074 | 100537
7 | 22:20.38 | 3:37.68 | 100538 | 116880
8 | 25:58.31 | 3:23.44 | 116881 | 132149
9 | 29:22.00 | 3:02.49 | 132150 | 145848
10 | 32:24.49 | 3:47.19 | 145849 | 162892
11 | 36:11.68 | 4:03.74 | 162893 | 181191
12 | 40:15.67 | 3:38.43 | 181192 | 197584
13 | 43:54.35 | 3:47.09 | 197585 | 214618
14 | 47:41.44 | 4:13.27 | 214619 | 233620
15 | 54:26.71 | 17:52.10 | 245021 | 325430

Track 1

Filename C:\EAC\01 – You Can’t Stop Me.wav

Pre-gap length 0:00:02.00

Peak level 99.3 %
Track quality 100.0 %
Test CRC 51961620
Copy CRC 51961620
Accurately ripped (confidence 21) [93B5EAEA]
Copy OK

Track 2

Filename C:\EAC\02 – Dick.wav

Peak level 99.3 %
Track quality 100.0 %
Test CRC 5F41BB6C
Copy CRC 5F41BB6C
Accurately ripped (confidence 21) [354BCD95]
Copy OK

Track 3

Filename C:\EAC\03 – Kiss The Dawn.wav

Peak level 99.3 %
Track quality 100.0 %
Test CRC FDD93BB7
Copy CRC FDD93BB7
Accurately ripped (confidence 21) [D6C3EDB2]
Copy OK

Track 4

Filename C:\EAC\04 – Pretty In Scarlet.wav

Peak level 99.3 %
Track quality 100.0 %
Test CRC 0DAB1A28
Copy CRC 0DAB1A28
Accurately ripped (confidence 21) [E944AD16]
Copy OK

Track 5

Filename C:\EAC\05 – Diokhan.wav

Peak level 99.3 %
Track quality 100.0 %
Test CRC 7552C80B
Copy CRC 7552C80B
Accurately ripped (confidence 21) [CDB662EC]
Copy OK

Track 6

Filename C:\EAC\06 – Electric Nights.wav

Pre-gap length 0:00:00.65

Peak level 99.3 %
Track quality 99.9 %
Test CRC E00AA14B
Copy CRC E00AA14B
Accurately ripped (confidence 21) [0D8627A5]
Copy OK

Track 7

Filename C:\EAC\07 – Quietly.wav

Peak level 99.3 %
Track quality 100.0 %
Test CRC 3CDA9A5A
Copy CRC 3CDA9A5A
Accurately ripped (confidence 21) [BF6B524C]
Copy OK

Track 8

Filename C:\EAC\08 – High.wav

Peak level 99.3 %
Track quality 100.0 %
Test CRC A86C39A3
Copy CRC A86C39A3
Accurately ripped (confidence 21) [523F2ACA]
Copy OK

Track 9

Filename C:\EAC\09 – Sing That Song.wav

Peak level 99.3 %
Track quality 100.0 %
Test CRC 2A2ED95A
Copy CRC 2A2ED95A
Accurately ripped (confidence 21) [D2D649C5]
Copy OK

Track 10

Filename C:\EAC\10 – Scratch The Pitch.wav

Peak level 99.3 %
Track quality 100.0 %
Test CRC FE418DD1
Copy CRC FE418DD1
Accurately ripped (confidence 21) [DAB13EE7]
Copy OK

Track 11

Filename C:\EAC\11 – Plastic Mouth.wav

Peak level 99.3 %
Track quality 100.0 %
Test CRC 09D685C0
Copy CRC 09D685C0
Accurately ripped (confidence 21) [00B61C08]
Copy OK

Track 12

Filename C:\EAC\12 – Counting The Days.wav

Peak level 99.3 %
Track quality 100.0 %
Test CRC A633A8E6
Copy CRC A633A8E6
Accurately ripped (confidence 21) [C1328A51]
Copy OK

Track 13

Filename C:\EAC\13 – Storm.wav

Peak level 99.3 %
Track quality 99.9 %
Test CRC DB51E5D9
Copy CRC DB51E5D9
Accurately ripped (confidence 21) [2E09882C]
Copy OK

Track 14

Filename C:\EAC\14 – Sugar Skin.wav

Peak level 99.3 %
Track quality 99.9 %
Test CRC DD0E7351
Copy CRC DD0E7351
Accurately ripped (confidence 21) [5D989B5E]
Copy OK

All tracks accurately ripped

No errors occurred

End of status report

REM GENRE “Alternative Rock”
REM DATE 2003
REM DISCID D410F30F
REM COMMENT “ExactAudioCopy v0.99pb4”
PERFORMER “Guano Apes”
TITLE “Walking On A Thin Line”
REM DISCNUMBER 1
REM TOTALDISCS 1
FILE “01. You Can’t Stop Me.m4a” WAVE
TRACK 01 AUDIO
TITLE “You Can’t Stop Me”
PERFORMER “Guano Apes”
INDEX 01 00:00:00
FILE “02. Dick.m4a” WAVE
TRACK 02 AUDIO
TITLE “Dick”
PERFORMER “Guano Apes”
INDEX 01 00:00:00
FILE “03. Kiss The Dawn.m4a” WAVE
TRACK 03 AUDIO
TITLE “Kiss The Dawn”
PERFORMER “Guano Apes”
INDEX 01 00:00:00
FILE “04. Pretty In Scarlet.m4a” WAVE
TRACK 04 AUDIO
TITLE “Pretty In Scarlet”
PERFORMER “Guano Apes”
INDEX 01 00:00:00
FILE “05. Diokhan.m4a” WAVE
TRACK 05 AUDIO
TITLE “Diokhan”
PERFORMER “Guano Apes”
INDEX 01 00:00:00
TRACK 06 AUDIO
TITLE “Electric Nights”
PERFORMER “Guano Apes”
INDEX 00 03:33:42
FILE “06. Electric Nights.m4a” WAVE
INDEX 01 00:00:00
FILE “07. Quietly.m4a” WAVE
TRACK 07 AUDIO
TITLE “Quietly”
PERFORMER “Guano Apes”
INDEX 01 00:00:00
FILE “08. High.m4a” WAVE
TRACK 08 AUDIO
TITLE “High”
PERFORMER “Guano Apes”
INDEX 01 00:00:00
FILE “09. Sing That Song.m4a” WAVE
TRACK 09 AUDIO
TITLE “Sing That Song”
PERFORMER “Guano Apes”
INDEX 01 00:00:00
FILE “10. Scratch The Pitch.m4a” WAVE
TRACK 10 AUDIO
TITLE “Scratch The Pitch”
PERFORMER “Guano Apes”
INDEX 01 00:00:00
FILE “11. Plastic Mouth.m4a” WAVE
TRACK 11 AUDIO
TITLE “Plastic Mouth”
PERFORMER “Guano Apes”
INDEX 01 00:00:00
FILE “12. Counting The Days.m4a” WAVE
TRACK 12 AUDIO
TITLE “Counting The Days”
PERFORMER “Guano Apes”
INDEX 01 00:00:00
FILE “13. Storm.m4a” WAVE
TRACK 13 AUDIO
TITLE “Storm”
PERFORMER “Guano Apes”
INDEX 01 00:00:00
FILE “14. Sugar Skin.m4a” WAVE
TRACK 14 AUDIO
TITLE “Sugar Skin”
PERFORMER “Guano Apes”
INDEX 01 00:00:00


Leave a Reply

Your email address will not be published. Required fields are marked *

Enter the text from the image below
 

This site uses Akismet to reduce spam. Learn how your comment data is processed.