Guano Apes – Proud Like A God




Artist: Guano Apes
Year: 1997
Genre: Rock
Notes: Discogs
Add. Notes:
Cover incl.: Yes
Encoder: ALAC
Bitrate: ~900 kBit/s (44.1 kHz/16 Bit/s)
Log & Cue incl.: Yes
Size: 378,88 MB
Password: “slam” (without ” “)


All Downloads/Hosters are compatible

Download 1
Turbobit.net
Rapidgator.net
UploadEver.com
KatFile.com
UsersDrive.com
Download 2
Turbobit.net
Rapidgator.net
UploadEver.com
KatFile.com
UsersDrive.com
Download 3
Turbobit.net
Rapidgator.net
UploadEver.com
KatFile.com
UsersDrive.com

Tracklist:

1 - Open Your Eyes - 3:08
2 - Maria - 3:46
3 - Rain - 4:37
4 - Crossing The Deadline - 3:25
5 - We Use The Pain - 2:32
6 - Never Born - 5:17
7 - Wash It Down - 3:06
8 - Scapegoat - 3:22
9 - Get Busy - 3:23
10 - Suzie - 2:55
11 - Tribute - 9:11
12-16 - (no audio) - 
17 - Move A Little Closer - 2:48

EAC-Log, CUE-Sheed & NFO:

Click to open spoiler
Exact Audio Copy V0.99 prebeta 5 from 4. May 2009

EAC extraction logfile from 1. September 2010, 20:37

Guano Apes / Proud Like A God

Used drive : HL-DT-STDVDRAM GSA-H42N Adapter: 1 ID: 0

Read mode : Secure
Utilize accurate stream : Yes
Defeat audio cache : Yes
Make use of C2 pointers : No

Read offset correction : 667
Overread into Lead-In and Lead-Out : No
Fill up missing offset samples with silence : Yes
Delete leading and trailing silent blocks : No
Null samples used in CRC calculations : Yes
Used interface : Native Win32 interface for Win NT & 2000
Gap handling : Appended to previous track

Used output format : User Defined Encoder
Selected bitrate : 320 kBit/s
Quality : High
Add ID3 tag : No
Command line compressor : C:\Program Files\Exact Audio Copy\Flac\flac.exe
Additional command line options : -8 -V -T “ARTIST=%a” -T “TITLE=%t” -T “ALBUM=%g” -T “DATE=%y” -T “TRACKNUMBER=%n” -T “GENRE=%m” -T “COMMENT=ripped by ahtoxa_m” %s

TOC of the extracted CD

Track | Start | Length | Start sector | End sector
———————————————————
1 | 0:00.00 | 3:09.15 | 0 | 14189
2 | 3:09.15 | 3:46.22 | 14190 | 31161
3 | 6:55.37 | 4:37.20 | 31162 | 51956
4 | 11:32.57 | 3:43.73 | 51957 | 68754
5 | 15:16.55 | 3:25.65 | 68755 | 84194
6 | 18:42.45 | 2:32.30 | 84195 | 95624
7 | 21:15.00 | 5:17.67 | 95625 | 119466
8 | 26:32.67 | 3:06.33 | 119467 | 133449
9 | 29:39.25 | 3:22.70 | 133450 | 148669
10 | 33:02.20 | 3:23.37 | 148670 | 163931
11 | 36:25.57 | 2:55.50 | 163932 | 177106
12 | 39:21.32 | 9:11.68 | 177107 | 218499
13 | 48:33.25 | 0:04.00 | 218500 | 218799
14 | 48:37.25 | 0:04.00 | 218800 | 219099
15 | 48:41.25 | 0:04.00 | 219100 | 219399
16 | 48:45.25 | 0:04.00 | 219400 | 219699
17 | 48:49.25 | 0:04.00 | 219700 | 219999
18 | 48:53.25 | 2:49.50 | 220000 | 232724

Track 1

Filename C:\1997 – Proud Like A God (74321 82592 2)\01. Guano Apes – Open Your Eyes.wav

Pre-gap length 0:00:02.00

Peak level 100.0 %
Track quality 100.0 %
Test CRC F8C6BAA7
Copy CRC F8C6BAA7
Cannot be verified as accurate (confidence 200) [1C764B0B], AccurateRip returned [FADFB403]
Copy OK

Track 2

Filename C:\1997 – Proud Like A God (74321 82592 2)\02. Guano Apes – Maria.wav

Peak level 100.0 %
Track quality 100.0 %
Test CRC F35C1487
Copy CRC F35C1487
Cannot be verified as accurate (confidence 200) [B29C3A91], AccurateRip returned [487A4230]
Copy OK

Track 3

Filename C:\1997 – Proud Like A God (74321 82592 2)\03. Guano Apes – Rain.wav

Peak level 100.0 %
Track quality 99.9 %
Test CRC 9DEC6AA2
Copy CRC 9DEC6AA2
Cannot be verified as accurate (confidence 200) [9973B79C], AccurateRip returned [E0345B71]
Copy OK

Track 4

Filename C:\1997 – Proud Like A God (74321 82592 2)\04. Guano Apes – Lords Of The Boards.wav

Peak level 95.8 %
Track quality 100.0 %
Test CRC AE620691
Copy CRC AE620691
Cannot be verified as accurate (confidence 200) [4D71EE9A], AccurateRip returned [C7543B4D]
Copy OK

Track 5

Filename C:\1997 – Proud Like A God (74321 82592 2)\05. Guano Apes – Crossing The Deadline.wav

Peak level 100.0 %
Track quality 99.9 %
Test CRC E467BCE3
Copy CRC E467BCE3
Cannot be verified as accurate (confidence 200) [CFFBFD3E], AccurateRip returned [2E67DE34]
Copy OK

Track 6

Filename C:\1997 – Proud Like A God (74321 82592 2)\06. Guano Apes – We Use The Pain.wav

Peak level 100.0 %
Track quality 99.9 %
Test CRC 463670DB
Copy CRC 463670DB
Cannot be verified as accurate (confidence 200) [7E95ED7C], AccurateRip returned [B5EED0A5]
Copy OK

Track 7

Filename C:\1997 – Proud Like A God (74321 82592 2)\07. Guano Apes – Never Born.wav

Peak level 99.7 %
Track quality 100.0 %
Test CRC AF3D24F9
Copy CRC AF3D24F9
Cannot be verified as accurate (confidence 200) [ADD2FE83], AccurateRip returned [2A3393D4]
Copy OK

Track 8

Filename C:\1997 – Proud Like A God (74321 82592 2)\08. Guano Apes – Wash It Down.wav

Peak level 100.0 %
Track quality 100.0 %
Test CRC 019D5981
Copy CRC 019D5981
Cannot be verified as accurate (confidence 200) [3E34390D], AccurateRip returned [E11A253B]
Copy OK

Track 9

Filename C:\1997 – Proud Like A God (74321 82592 2)\09. Guano Apes – Scapegoat.wav

Peak level 100.0 %
Track quality 100.0 %
Test CRC 0198497F
Copy CRC 0198497F
Cannot be verified as accurate (confidence 200) [852B7C85], AccurateRip returned [3A6ED158]
Copy OK

Track 10

Filename C:\1997 – Proud Like A God (74321 82592 2)\10. Guano Apes – Get Busy.wav

Peak level 100.0 %
Track quality 100.0 %
Test CRC 2E0F390C
Copy CRC 2E0F390C
Cannot be verified as accurate (confidence 200) [252ADC36], AccurateRip returned [C528B071]
Copy OK

Track 11

Filename C:\1997 – Proud Like A God (74321 82592 2)\11. Guano Apes – Suzie.wav

Peak level 99.5 %
Track quality 99.9 %
Test CRC 0CA626D4
Copy CRC 0CA626D4
Cannot be verified as accurate (confidence 200) [519AFD18], AccurateRip returned [050EA81A]
Copy OK

Track 12

Filename C:\1997 – Proud Like A God (74321 82592 2)\12. Guano Apes – Tribute.wav

Peak level 100.0 %
Track quality 100.0 %
Test CRC EF569AE0
Copy CRC EF569AE0
Cannot be verified as accurate (confidence 200) [572F8DED], AccurateRip returned [B208C1E4]
Copy OK

Track 13

Filename C:\1997 – Proud Like A God (74321 82592 2)\13. Guano Apes – Pause 1.wav

Peak level 0.0 %
Track quality 97.2 %
Test CRC AB9FF0F8
Copy CRC AB9FF0F8
Track not present in AccurateRip database
Copy OK

Track 14

Filename C:\1997 – Proud Like A God (74321 82592 2)\14. Guano Apes – Pause 2.wav

Peak level 0.0 %
Track quality 97.2 %
Test CRC 62A3EE97
Copy CRC 62A3EE97
Track not present in AccurateRip database
Copy OK

Track 15

Filename C:\1997 – Proud Like A God (74321 82592 2)\15. Guano Apes – Pause 3.wav

Peak level 0.0 %
Track quality 97.2 %
Test CRC 10636DA9
Copy CRC 10636DA9
Track not present in AccurateRip database
Copy OK

Track 16

Filename C:\1997 – Proud Like A God (74321 82592 2)\16. Guano Apes – Pause 4.wav

Peak level 0.0 %
Track quality 97.2 %
Test CRC 263C9E56
Copy CRC 263C9E56
Track not present in AccurateRip database
Copy OK

Track 17

Filename C:\1997 – Proud Like A God (74321 82592 2)\17. Guano Apes – Pause 5.wav

Peak level 0.0 %
Track quality 97.2 %
Test CRC 0B343944
Copy CRC 0B343944
Track not present in AccurateRip database
Copy OK

Track 18

Filename C:\1997 – Proud Like A God (74321 82592 2)\18. Guano Apes – Move A Little Closer.wav

Peak level 100.0 %
Track quality 100.0 %
Test CRC DE1D3C67
Copy CRC DE1D3C67
Cannot be verified as accurate (confidence 200) [4CC7F9D2], AccurateRip returned [8E2F9221]
Copy OK

13 track(s) could not be verified as accurate
5 track(s) not present in the AccurateRip database

No tracks could be verified as accurate
You may have a different pressing from the one(s) in the database

No errors occurred

End of status report

REM GENRE “Alternative Rock”
REM DATE 2000
REM DISCID 1E0C1F12
REM COMMENT “ExactAudioCopy v0.99pb5”
PERFORMER “Guano Apes”
TITLE “Proud Like A God”
REM DISCNUMBER 1
REM TOTALDISCS 1
FILE “01. Open Your Eyes.m4a” WAVE
TRACK 01 AUDIO
TITLE “Open Your Eyes”
PERFORMER “Guano Apes”
INDEX 01 00:00:00
FILE “02. Maria.m4a” WAVE
TRACK 02 AUDIO
TITLE “Maria”
PERFORMER “Guano Apes”
INDEX 01 00:00:00
FILE “03. Rain.m4a” WAVE
TRACK 03 AUDIO
TITLE “Rain”
PERFORMER “Guano Apes”
INDEX 01 00:00:00
FILE “04. Lords Of The Boards.m4a” WAVE
TRACK 04 AUDIO
TITLE “Lords Of The Boards”
PERFORMER “Guano Apes”
INDEX 01 00:00:00
FILE “05. Crossing The Deadline.m4a” WAVE
TRACK 05 AUDIO
TITLE “Crossing The Deadline”
PERFORMER “Guano Apes”
INDEX 01 00:00:00
FILE “06. We Use The Pain.m4a” WAVE
TRACK 06 AUDIO
TITLE “We Use The Pain”
PERFORMER “Guano Apes”
INDEX 01 00:00:00
FILE “07. Never Born.m4a” WAVE
TRACK 07 AUDIO
TITLE “Never Born”
PERFORMER “Guano Apes”
INDEX 01 00:00:00
FILE “08. Wash It Down.m4a” WAVE
TRACK 08 AUDIO
TITLE “Wash It Down”
PERFORMER “Guano Apes”
INDEX 01 00:00:00
FILE “09. Scapegoat.m4a” WAVE
TRACK 09 AUDIO
TITLE “Scapegoat”
PERFORMER “Guano Apes”
INDEX 01 00:00:00
FILE “10. Get Busy.m4a” WAVE
TRACK 10 AUDIO
TITLE “Get Busy”
PERFORMER “Guano Apes”
INDEX 01 00:00:00
FILE “11. Suzie.m4a” WAVE
TRACK 11 AUDIO
TITLE “Suzie”
PERFORMER “Guano Apes”
INDEX 01 00:00:00
FILE “12. Tribute.m4a” WAVE
TRACK 12 AUDIO
TITLE “Tribute”
PERFORMER “Guano Apes”
INDEX 01 00:00:00
FILE “13. Pause 1.m4a” WAVE
TRACK 13 AUDIO
TITLE “Pause 1”
PERFORMER “Guano Apes”
INDEX 01 00:00:00
FILE “14. Pause 2.m4a” WAVE
TRACK 14 AUDIO
TITLE “Pause 2”
PERFORMER “Guano Apes”
INDEX 01 00:00:00
FILE “15. Pause 3.m4a” WAVE
TRACK 15 AUDIO
TITLE “Pause 3”
PERFORMER “Guano Apes”
INDEX 01 00:00:00
FILE “16. Pause 4.m4a” WAVE
TRACK 16 AUDIO
TITLE “Pause 4”
PERFORMER “Guano Apes”
INDEX 01 00:00:00
FILE “17. Pause 5.m4a” WAVE
TRACK 17 AUDIO
TITLE “Pause 5”
PERFORMER “Guano Apes”
INDEX 01 00:00:00
FILE “18. Move A Little Closer.m4a” WAVE
TRACK 18 AUDIO
TITLE “Move A Little Closer”
PERFORMER “Guano Apes”
INDEX 01 00:00:00


Leave a Reply

Your email address will not be published. Required fields are marked *

Enter the text from the image below
 

This site uses Akismet to reduce spam. Learn how your comment data is processed.