Guano Apes – Offline




Artist: Guano Apes
Year: 2014
Genre: Rock
Notes: Discogs
Add. Notes:
Cover incl.: No
Encoder: ALAC
Bitrate: (44.1 kHz/16 Bit/s)
Log & Cue incl.: Yes
Size: 278,75 MB
Password: “slam” (without ” “)


All Downloads/Hosters are compatible

Download 1
Turbobit.net
NitroFlare.com
KatFile.com
Rapidgator.net
Download 2
Turbobit.net
NitroFlare.com
KatFile.com
Rapidgator.net

Tracklist:

1. Like Somebody 
2. Close To The Sun 
3. Hey Last Beautiful 
4. Numen 
5. Cried All Out 
6. It´s Not Over 
7. Water Wars 
8. Fake 
9. Jiggle 
10. The Long Way Home

EAC-Log, CUE-Sheed & NFO:

Click to open spoiler
Exact Audio Copy V1.0 beta 3 from 29. August 2011

EAC extraction logfile from 1. June 2014, 21:35

Guano Apes / Offline

Used drive : PHILIPS DVD+-RW SDVD8820 Adapter: 1 ID: 0

Read mode : Secure
Utilize accurate stream : Yes
Defeat audio cache : Yes
Make use of C2 pointers : No

Read offset correction : 6
Overread into Lead-In and Lead-Out : No
Fill up missing offset samples with silence : Yes
Delete leading and trailing silent blocks : No
Null samples used in CRC calculations : Yes
Used interface : Native Win32 interface for Win NT & 2000
Gap handling : Appended to previous track

Used output format : User Defined Encoder
Selected bitrate : 1024 kBit/s
Quality : High
Add ID3 tag : No
Command line compressor : C:\Program Files\FLAC\flac.exe
Additional command line options : -8 -V -T “ARTIST=%artist%” -T “TITLE=%title%” -T “ALBUM=%albumtitle%” -T “DATE=%year%” -T “TRACKNUMBER=%tracknr%” -T “GENRE=%genre%” -T “PERFORMER=%albuminterpret%” -T “COMPOSER=%composer%” %haslyrics%–tag-from-file=LYRICS=”%lyricsfile%”%haslyrics% -T “ALBUMARTIST=%albumartist%” -T “DISCNUMBER=%cdnumber%” -T “TOTALDISCS=%totalcds%” -T “TOTALTRACKS=%numtracks%” -T “COMMENT=%comment%” %source% -o %dest%

TOC of the extracted CD

Track | Start | Length | Start sector | End sector
———————————————————
1 | 0:00.00 | 4:54.15 | 0 | 22064
2 | 4:54.15 | 3:42.09 | 22065 | 38723
3 | 8:36.24 | 3:26.33 | 38724 | 54206
4 | 12:02.57 | 4:07.33 | 54207 | 72764
5 | 16:10.15 | 4:07.72 | 72765 | 91361
6 | 20:18.12 | 3:45.11 | 91362 | 108247
7 | 24:03.23 | 3:57.59 | 108248 | 126081
8 | 28:01.07 | 2:55.48 | 126082 | 139254
9 | 30:56.55 | 3:37.48 | 139255 | 155577
10 | 34:34.28 | 3:59.47 | 155578 | 173549

Track 1

Filename C:\Guano Apes – Offline (2014) [88843079262]\01 – Like Somebody.wav

Pre-gap length 0:00:02.00

Peak level 99.9 %
Extraction speed 3.1 X
Track quality 100.0 %
Test CRC 5C1B5FA5
Copy CRC 5C1B5FA5
Track not present in AccurateRip database
Copy OK

Track 2

Filename C:\Guano Apes – Offline (2014) [88843079262]\02 – Close to the Sun.wav

Peak level 99.9 %
Extraction speed 2.0 X
Track quality 99.9 %
Test CRC ABCBFF72
Copy CRC ABCBFF72
Track not present in AccurateRip database
Copy OK

Track 3

Filename C:\Guano Apes – Offline (2014) [88843079262]\03 – Hey Last Beautiful.wav

Peak level 99.9 %
Extraction speed 3.5 X
Track quality 100.0 %
Test CRC 33A04475
Copy CRC 33A04475
Track not present in AccurateRip database
Copy OK

Track 4

Filename C:\Guano Apes – Offline (2014) [88843079262]\04 – Numen.wav

Peak level 94.9 %
Extraction speed 3.4 X
Track quality 99.9 %
Test CRC 66631A65
Copy CRC 66631A65
Track not present in AccurateRip database
Copy OK

Track 5

Filename C:\Guano Apes – Offline (2014) [88843079262]\05 – Cried all Out.wav

Peak level 94.5 %
Extraction speed 3.6 X
Track quality 99.9 %
Test CRC 58AB09F9
Copy CRC 58AB09F9
Track not present in AccurateRip database
Copy OK

Track 6

Filename C:\Guano Apes – Offline (2014) [88843079262]\06 – It’s Not Over.wav

Peak level 99.9 %
Extraction speed 4.3 X
Track quality 100.0 %
Test CRC 78FA9D1E
Copy CRC 78FA9D1E
Track not present in AccurateRip database
Copy OK

Track 7

Filename C:\Guano Apes – Offline (2014) [88843079262]\07 – Water Wars.wav

Peak level 99.9 %
Extraction speed 4.5 X
Track quality 100.0 %
Test CRC 6CBFAAE1
Copy CRC 6CBFAAE1
Track not present in AccurateRip database
Copy OK

Track 8

Filename C:\Guano Apes – Offline (2014) [88843079262]\08 – Fake.wav

Peak level 99.9 %
Extraction speed 3.7 X
Track quality 99.9 %
Test CRC E0FD674F
Copy CRC E0FD674F
Track not present in AccurateRip database
Copy OK

Track 9

Filename C:\Guano Apes – Offline (2014) [88843079262]\09 – Jiggle.wav

Peak level 95.0 %
Extraction speed 4.8 X
Track quality 100.0 %
Test CRC F8954796
Copy CRC F8954796
Track not present in AccurateRip database
Copy OK

Track 10

Filename C:\Guano Apes – Offline (2014) [88843079262]\10 – The Long Way Home.wav

Peak level 99.9 %
Extraction speed 4.9 X
Track quality 100.0 %
Test CRC 2205423C
Copy CRC 2205423C
Track not present in AccurateRip database
Copy OK

None of the tracks are present in the AccurateRip database

No errors occurred

End of status report

—- CUETools DB Plugin V2.1.3

[CTDB TOCID: KcUDnGGMQi2MeY8d2_PjqSBiPkg-] found, Submit result: already submitted
[e3431893] (7/7) Accurately ripped

==== Log checksum 8BE4796736BB670C5B3E57566CE4E1E8E1A9151D88FDC27425A0E6B8591EE80D ====

REM GENRE “Alternative Rock”
REM DATE 2014
REM COMMENT “ExactAudioCopy v1.0b3”
PERFORMER “Guano Apes”
TITLE “Offline”
REM DISCNUMBER 1
REM TOTALDISCS 1
FILE “01. Like Somebody.m4a” WAVE
TRACK 01 AUDIO
PERFORMER “Guano Apes”
TITLE “Like Somebody”
INDEX 01 00:00:00
FILE “02. Close to the Sun.m4a” WAVE
TRACK 02 AUDIO
PERFORMER “Guano Apes”
TITLE “Close to the Sun”
INDEX 01 00:00:00
FILE “03. Hey Last Beautiful.m4a” WAVE
TRACK 03 AUDIO
PERFORMER “Guano Apes”
TITLE “Hey Last Beautiful”
INDEX 01 00:00:00
FILE “04. Numen.m4a” WAVE
TRACK 04 AUDIO
PERFORMER “Guano Apes”
TITLE “Numen”
INDEX 01 00:00:00
FILE “05. Cried all Out.m4a” WAVE
TRACK 05 AUDIO
PERFORMER “Guano Apes”
TITLE “Cried all Out”
INDEX 01 00:00:00
FILE “06. It’s Not Over.m4a” WAVE
TRACK 06 AUDIO
PERFORMER “Guano Apes”
TITLE “It’s Not Over”
INDEX 01 00:00:00
FILE “07. Water Wars.m4a” WAVE
TRACK 07 AUDIO
PERFORMER “Guano Apes”
TITLE “Water Wars”
INDEX 01 00:00:00
FILE “08. Fake.m4a” WAVE
TRACK 08 AUDIO
PERFORMER “Guano Apes”
TITLE “Fake”
INDEX 01 00:00:00
FILE “09. Jiggle.m4a” WAVE
TRACK 09 AUDIO
PERFORMER “Guano Apes”
TITLE “Jiggle”
INDEX 01 00:00:00
FILE “10. The Long Way Home.m4a” WAVE
TRACK 10 AUDIO
PERFORMER “Guano Apes”
TITLE “The Long Way Home”
INDEX 01 00:00:00


Leave a Reply

Your email address will not be published. Required fields are marked *

Enter the text from the image below
 

This site uses Akismet to reduce spam. Learn how your comment data is processed.