Guano Apes – Don’t give me names




Artist: Guano Apes
Year: 2000
Genre: Rock
Notes: Discogs
Add. Notes:
Cover incl.: No
Encoder: FLAC
Bitrate: ~900 kBit/s (44.1 kHz/16 Bit/s)
Log & Cue incl.: Yes
Size: 312,32 MB
Password: “slam” (without ” “)


All Downloads/Hosters are compatible

Download 1
Turbobit.net
Rapidgator.net
KatFile.com
UploadRar.com
Download 2
Turbobit.net
Rapidgator.net
KatFile.com
UploadRar.com
Download 3
Turbobit.net
Rapidgator.net
KatFile.com
UploadRar.com

Tracklist:

1 Innocent Greed 3:49
2 No Speech 3:29
3 Big In Japan 2:49
4 Money & Milk 2:39
5 Living In A Lie 4:33
6 Dödel Up 3:38
7 I Want It 3:19
8 Heaven 4:59
9 Mine All Mine 3:49
10 Too Close To Leave 3:33
11 Gogan 2:48
12 Anne Claire 5:35

EAC-Log, CUE-Sheed & NFO:

Click to open spoiler
Exact Audio Copy V1.3 from 2. September 2016

EAC extraction logfile from 10. March 2019, 17:05

Guano Apes / Don´t give me Names

Used drive : HL-DT-STDVDRAM GUE0N Adapter: 1 ID: 0

Read mode : Secure
Utilize accurate stream : Yes
Defeat audio cache : Yes
Make use of C2 pointers : No

Read offset correction : 102
Overread into Lead-In and Lead-Out : No
Fill up missing offset samples with silence : Yes
Delete leading and trailing silent blocks : No
Null samples used in CRC calculations : Yes
Used interface : Native Win32 interface for Win NT & 2000
Gap handling : Appended to previous track

Used output format : User Defined Encoder
Selected bitrate : 1024 kBit/s
Quality : High
Add ID3 tag : No
Command line compressor : C:\Program Files (x86)\Exact Audio Copy\FLAC\FLAC.EXE
Additional command line options : -8 -V -T “ARTIST=%artist%” -T “TITLE=%title%” -T “ALBUM=%albumtitle%” -T “DATE=%year%” -T “TRACKNUMBER=%tracknr%” -T “GENRE=%genre%” -T “COMMENT=%comment%” -T “BAND=%albuminterpret%” -T “COMPOSER=%composer%” %haslyrics%–tag-from-file=LYRICS=”%lyricsfile%”%haslyrics% -T “DISCNUMBER=%cdnumber%” -T “TOTALDISCS=%totalcds%” -T “TOTALTRACKS=%numtracks%” %hascover%–picture=”%coverfile%”%hascover% %source% -o %dest%

TOC of the extracted CD

Track | Start | Length | Start sector | End sector
———————————————————
1 | 0:00.00 | 3:51.02 | 0 | 17326
2 | 3:51.02 | 3:30.23 | 17327 | 33099
3 | 7:21.25 | 2:48.35 | 33100 | 45734
4 | 10:09.60 | 2:38.45 | 45735 | 57629
5 | 12:48.30 | 4:33.25 | 57630 | 78129
6 | 17:21.55 | 3:37.70 | 78130 | 94474
7 | 20:59.50 | 3:19.10 | 94475 | 109409
8 | 24:18.60 | 4:59.00 | 109410 | 131834
9 | 29:17.60 | 3:48.50 | 131835 | 148984
10 | 33:06.35 | 3:32.65 | 148985 | 164949
11 | 36:39.25 | 2:47.60 | 164950 | 177534
12 | 39:27.10 | 5:35.42 | 177535 | 202701

Track 1

Filename D:\Eigene Musik\Guano Apes\Don´t give me Names\01. Innocent Greed.wav

Pre-gap length 0:00:02.00

Peak level 98.8 %
Extraction speed 2.5 X
Track quality 100.0 %
Copy CRC 7B6EA3FE
Accurately ripped (confidence 8) [66755D29] (AR v2)
Copy OK

Track 2

Filename D:\Eigene Musik\Guano Apes\Don´t give me Names\02. No Speech.wav

Pre-gap length 0:00:01.37

Peak level 98.3 %
Extraction speed 2.9 X
Track quality 100.0 %
Copy CRC 5D1C36AF
Accurately ripped (confidence 8) [80617398] (AR v2)
Copy OK

Track 3

Filename D:\Eigene Musik\Guano Apes\Don´t give me Names\03. Big In Japan.wav

Pre-gap length 0:00:00.50

Peak level 98.8 %
Extraction speed 2.3 X
Track quality 100.0 %
Copy CRC 5ECB70DE
Accurately ripped (confidence 8) [367B11F3] (AR v2)
Copy OK

Track 4

Filename D:\Eigene Musik\Guano Apes\Don´t give me Names\04. Money & Milk.wav

Peak level 98.8 %
Extraction speed 2.3 X
Track quality 100.0 %
Copy CRC FFCE08BB
Accurately ripped (confidence 8) [CE7A72CC] (AR v2)
Copy OK

Track 5

Filename D:\Eigene Musik\Guano Apes\Don´t give me Names\05. Living In A Lie.wav

Peak level 98.8 %
Extraction speed 3.6 X
Track quality 100.0 %
Copy CRC A865C3CC
Accurately ripped (confidence 8) [120CF7D2] (AR v2)
Copy OK

Track 6

Filename D:\Eigene Musik\Guano Apes\Don´t give me Names\06. Dödel Up.wav

Peak level 98.8 %
Extraction speed 3.6 X
Track quality 100.0 %
Copy CRC 0F1C268F
Accurately ripped (confidence 8) [7FE0ADB3] (AR v2)
Copy OK

Track 7

Filename D:\Eigene Musik\Guano Apes\Don´t give me Names\07. I Want It.wav

Peak level 98.8 %
Extraction speed 2.8 X
Track quality 100.0 %
Copy CRC B0F31869
Accurately ripped (confidence 8) [DBDFA632] (AR v2)
Copy OK

Track 8

Filename D:\Eigene Musik\Guano Apes\Don´t give me Names\08. Heaven.wav

Peak level 98.8 %
Extraction speed 3.4 X
Track quality 100.0 %
Copy CRC DCB2B389
Accurately ripped (confidence 8) [582E0CF4] (AR v2)
Copy OK

Track 9

Filename D:\Eigene Musik\Guano Apes\Don´t give me Names\09. Mine All Mine.wav

Peak level 98.8 %
Extraction speed 4.0 X
Track quality 100.0 %
Copy CRC FF197557
Accurately ripped (confidence 8) [7C4807BE] (AR v2)
Copy OK

Track 10

Filename D:\Eigene Musik\Guano Apes\Don´t give me Names\10. Too Close To Leave.wav

Peak level 98.8 %
Extraction speed 4.1 X
Track quality 100.0 %
Copy CRC 8D6CD55F
Accurately ripped (confidence 8) [F6A670BD] (AR v2)
Copy OK

Track 11

Filename D:\Eigene Musik\Guano Apes\Don´t give me Names\11. Gogan.wav

Peak level 98.8 %
Extraction speed 4.1 X
Track quality 100.0 %
Copy CRC 9AA3723A
Accurately ripped (confidence 8) [AF2338DE] (AR v2)
Copy OK

Track 12

Filename D:\Eigene Musik\Guano Apes\Don´t give me Names\12. Anne Claire.wav

Pre-gap length 0:00:00.02

Peak level 98.8 %
Extraction speed 3.9 X
Track quality 100.0 %
Copy CRC 5A817AFB
Accurately ripped (confidence 8) [0F12B866] (AR v2)
Copy OK

All tracks accurately ripped

No errors occurred

End of status report

—- CUETools DB Plugin V2.1.6

[CTDB TOCID: mAeYszOqgJvYSkVRwY3q4iI.cq8-] found
Submit result: mAeYszOqgJvYSkVRwY3q4iI.cq8- has been confirmed
Track | CTDB Status
1 | (478/502) Accurately ripped
2 | (479/502) Accurately ripped
3 | (478/502) Accurately ripped
4 | (482/502) Accurately ripped
5 | (483/502) Accurately ripped
6 | (483/502) Accurately ripped
7 | (483/502) Accurately ripped
8 | (483/502) Accurately ripped
9 | (483/502) Accurately ripped
10 | (483/502) Accurately ripped
11 | (482/502) Accurately ripped
12 | (479/502) Accurately ripped

==== Log checksum D8BD4AC13134A8A6684FDB09EB5377F30F9AD3EC0E65C03D60EF3A735A3D32A2 ====

REM GENRE Crossover
REM DATE 2000
REM DISCID 910A8E0C
REM COMMENT “ExactAudioCopy v1.3”
PERFORMER “Guano Apes”
TITLE “Don´t give me Names”
REM COMPOSER “”
FILE “Guano Apes\Don´t give me Names\01. Innocent Greed.wav” WAVE
TRACK 01 AUDIO
TITLE “Innocent Greed”
PERFORMER “Guano Apes”
REM COMPOSER “”
ISRC DEC680000212
INDEX 01 00:00:00
TRACK 02 AUDIO
TITLE “No Speech”
PERFORMER “Guano Apes”
REM COMPOSER “”
ISRC DEC680000218
INDEX 00 03:49:40
FILE “Guano Apes\Don´t give me Names\02. No Speech.wav” WAVE
INDEX 01 00:00:00
TRACK 03 AUDIO
TITLE “Big In Japan”
PERFORMER “Guano Apes”
REM COMPOSER “”
ISRC DEC680000202
INDEX 00 03:29:48
FILE “Guano Apes\Don´t give me Names\03. Big In Japan.wav” WAVE
INDEX 01 00:00:00
FILE “Guano Apes\Don´t give me Names\04. Money & Milk.wav” WAVE
TRACK 04 AUDIO
TITLE “Money & Milk”
PERFORMER “Guano Apes”
REM COMPOSER “”
ISRC DEC680000220
INDEX 01 00:00:00
FILE “Guano Apes\Don´t give me Names\05. Living In A Lie.wav” WAVE
TRACK 05 AUDIO
TITLE “Living In A Lie”
PERFORMER “Guano Apes”
REM COMPOSER “”
ISRC DEC680000221
INDEX 01 00:00:00
FILE “Guano Apes\Don´t give me Names\06. Dödel Up.wav” WAVE
TRACK 06 AUDIO
TITLE “Dödel Up”
PERFORMER “Guano Apes”
REM COMPOSER “”
ISRC DEC680000223
INDEX 01 00:00:00
FILE “Guano Apes\Don´t give me Names\07. I Want It.wav” WAVE
TRACK 07 AUDIO
TITLE “I Want It”
PERFORMER “Guano Apes”
REM COMPOSER “”
ISRC DEC680000204
INDEX 01 00:00:00
FILE “Guano Apes\Don´t give me Names\08. Heaven.wav” WAVE
TRACK 08 AUDIO
TITLE “Heaven”
PERFORMER “Guano Apes”
REM COMPOSER “”
ISRC DEC680000222
INDEX 01 00:00:00
FILE “Guano Apes\Don´t give me Names\09. Mine All Mine.wav” WAVE
TRACK 09 AUDIO
TITLE “Mine All Mine”
PERFORMER “Guano Apes”
REM COMPOSER “”
ISRC DEC680000224
INDEX 01 00:00:00
FILE “Guano Apes\Don´t give me Names\10. Too Close To Leave.wav” WAVE
TRACK 10 AUDIO
TITLE “Too Close To Leave”
PERFORMER “Guano Apes”
REM COMPOSER “”
ISRC DEC680000225
INDEX 01 00:00:00
FILE “Guano Apes\Don´t give me Names\11. Gogan.wav” WAVE
TRACK 11 AUDIO
TITLE “Gogan”
PERFORMER “Guano Apes”
REM COMPOSER “”
ISRC DEC680000203
INDEX 01 00:00:00
TRACK 12 AUDIO
TITLE “Anne Claire”
PERFORMER “Guano Apes”
REM COMPOSER “”
ISRC DEC680000227
INDEX 00 02:47:58
FILE “Guano Apes\Don´t give me Names\12. Anne Claire.wav” WAVE
INDEX 01 00:00:00


Leave a Reply

Your email address will not be published. Required fields are marked *

This site uses Akismet to reduce spam. Learn how your comment data is processed.