Guano Apes – Don’t Give Me Names




Artist: Guano Apes
Year: 2000
Genre: Alternative
Notes: Discogs
Add. Notes:
Cover incl.: Yes
Encoder: ALAC
Bitrate: ~800 kBit/s (44.1 kHz/16 Bit/s)
Log & Cue incl.: Yes
Size: 394,81 MB
Password: “slam” (without ” “)


All Downloads/Hosters are compatible

Download 1
Turbobit.net
Rapidgator.net
KatFile.com
UploadRar.com
Download 2
Turbobit.net
Rapidgator.net
KatFile.com
UploadRar.com
Download 3
Turbobit.net
Rapidgator.net
KatFile.com
UploadRar.com

Tracklist:

1 - Innocent Greed - 3:49
2 - No Speech - 3:29
3 - Big In Japan - 2:49
4 - Money & Milk - 2:39
5 - Living In A Lie - 4:33
6 - Dödel Up - 3:38
7 - I Want It - 3:19
8 - Heaven - 4:59
9 - Mine All Mine - 3:49
10 - Too Close To Leave - 3:33
11 - Gogan - 2:48
12 - Anne Claire - 5:35
13 - Ain't Got Time - 2:42
14 - Living In A Lie (Unplugged) - 4:27
15 - Anne Claire (Unplugged) - 5:08

EAC-Log, CUE-Sheed & NFO:

Click to open spoiler
Exact Audio Copy V0.99 prebeta 4 from 23. January 2008

EAC extraction logfile from 23. March 2009, 6:43

Guano Apes / Don’t Give Me Names

Used drive : Optiarc DVD RW AD-7201S Adapter: 5 ID: 1

Read mode : Secure
Utilize accurate stream : Yes
Defeat audio cache : Yes
Make use of C2 pointers : No

Read offset correction : 48
Overread into Lead-In and Lead-Out : No
Fill up missing offset samples with silence : Yes
Delete leading and trailing silent blocks : No
Null samples used in CRC calculations : Yes
Used interface : Native Win32 interface for Win NT & 2000
Gap handling : Appended to previous track

Used output format : User Defined Encoder
Selected bitrate : 1024 kBit/s
Quality : High
Add ID3 tag : No
Command line compressor : C:\Program Files\Exact Audio Copy\FLAC\FLAC.EXE
Additional command line options : -8 -V -T “ARTIST=%a” -T “TITLE=%t” -T “ALBUM=%g” -T “DATE=%y” -T “TRACKNUMBER=%n” -T “GENRE=%m” -T “COMMENT=%e” %s

TOC of the extracted CD

Track | Start | Length | Start sector | End sector
———————————————————
1 | 0:00.00 | 3:53.37 | 0 | 17511
2 | 3:53.37 | 3:32.17 | 17512 | 33428
3 | 7:25.54 | 2:50.37 | 33429 | 46215
4 | 10:16.16 | 2:40.47 | 46216 | 58262
5 | 12:56.63 | 4:35.32 | 58263 | 78919
6 | 17:32.20 | 3:39.67 | 78920 | 95411
7 | 21:12.12 | 3:21.07 | 95412 | 110493
8 | 24:33.19 | 5:01.07 | 110494 | 133075
9 | 29:34.26 | 3:50.52 | 133076 | 150377
10 | 33:25.03 | 3:34.57 | 150378 | 166484
11 | 36:59.60 | 2:49.72 | 166485 | 179231
12 | 39:49.57 | 5:43.42 | 179232 | 204998
13 | 45:33.24 | 2:45.07 | 204999 | 217380
14 | 48:18.31 | 4:29.12 | 217381 | 237567
15 | 52:47.43 | 5:08.37 | 237568 | 260704

Track 1

Filename D:\Desktop\Music Seedbox\Guano Apes – Don’t Give Me Names\01 Innocent Greed.wav

Pre-gap length 0:00:02.00

Peak level 98.8 %
Track quality 100.0 %
Test CRC C907C0D8
Copy CRC C907C0D8
Track not present in AccurateRip database
Copy OK

Track 2

Filename D:\Desktop\Music Seedbox\Guano Apes – Don’t Give Me Names\02 No Speech.wav

Peak level 98.3 %
Track quality 100.0 %
Test CRC F3252B33
Copy CRC F3252B33
Track not present in AccurateRip database
Copy OK

Track 3

Filename D:\Desktop\Music Seedbox\Guano Apes – Don’t Give Me Names\03 Big in Japan.wav

Peak level 98.8 %
Track quality 100.0 %
Test CRC 4AFE94B5
Copy CRC 4AFE94B5
Track not present in AccurateRip database
Copy OK

Track 4

Filename D:\Desktop\Music Seedbox\Guano Apes – Don’t Give Me Names\04 Money & Milk.wav

Peak level 98.8 %
Track quality 100.0 %
Test CRC 3252665E
Copy CRC 3252665E
Track not present in AccurateRip database
Copy OK

Track 5

Filename D:\Desktop\Music Seedbox\Guano Apes – Don’t Give Me Names\05 Living in a Lie.wav

Peak level 98.8 %
Track quality 100.0 %
Test CRC 2E9C6C95
Copy CRC 2E9C6C95
Track not present in AccurateRip database
Copy OK

Track 6

Filename D:\Desktop\Music Seedbox\Guano Apes – Don’t Give Me Names\06 Dodel Up.wav

Peak level 98.8 %
Track quality 100.0 %
Test CRC 81574AB2
Copy CRC 81574AB2
Track not present in AccurateRip database
Copy OK

Track 7

Filename D:\Desktop\Music Seedbox\Guano Apes – Don’t Give Me Names\07 I Want It.wav

Peak level 98.8 %
Track quality 100.0 %
Test CRC 0A721FD3
Copy CRC 0A721FD3
Track not present in AccurateRip database
Copy OK

Track 8

Filename D:\Desktop\Music Seedbox\Guano Apes – Don’t Give Me Names\08 Heaven.wav

Peak level 98.8 %
Track quality 100.0 %
Test CRC A251F2F0
Copy CRC A251F2F0
Track not present in AccurateRip database
Copy OK

Track 9

Filename D:\Desktop\Music Seedbox\Guano Apes – Don’t Give Me Names\09 Mine All Mine.wav

Peak level 98.8 %
Track quality 100.0 %
Test CRC 6C13FAD8
Copy CRC 6C13FAD8
Track not present in AccurateRip database
Copy OK

Track 10

Filename D:\Desktop\Music Seedbox\Guano Apes – Don’t Give Me Names\10 Too Close to Leave.wav

Peak level 98.8 %
Track quality 99.9 %
Test CRC 00FA6CD3
Copy CRC 00FA6CD3
Track not present in AccurateRip database
Copy OK

Track 11

Filename D:\Desktop\Music Seedbox\Guano Apes – Don’t Give Me Names\11 Gogan.wav

Peak level 98.8 %
Track quality 100.0 %
Test CRC AB7771D5
Copy CRC AB7771D5
Track not present in AccurateRip database
Copy OK

Track 12

Filename D:\Desktop\Music Seedbox\Guano Apes – Don’t Give Me Names\12 Anne Claire.wav

Peak level 98.8 %
Track quality 100.0 %
Test CRC 3F100FD8
Copy CRC 3F100FD8
Track not present in AccurateRip database
Copy OK

Track 13

Filename D:\Desktop\Music Seedbox\Guano Apes – Don’t Give Me Names\13 Ain’t Got Time.wav

Peak level 98.8 %
Track quality 100.0 %
Test CRC 044FFE1D
Copy CRC 044FFE1D
Track not present in AccurateRip database
Copy OK

Track 14

Filename D:\Desktop\Music Seedbox\Guano Apes – Don’t Give Me Names\14 Living in a Lie (Unplugged).wav

Peak level 98.3 %
Track quality 100.0 %
Test CRC 68EF6E4F
Copy CRC 68EF6E4F
Track not present in AccurateRip database
Copy OK

Track 15

Filename D:\Desktop\Music Seedbox\Guano Apes – Don’t Give Me Names\15 Anne Claire (Unplugged).wav

Peak level 97.7 %
Track quality 99.9 %
Test CRC F3DAD690
Copy CRC F3DAD690
Track not present in AccurateRip database
Copy OK

None of the tracks are present in the AccurateRip database

No errors occurred

End of status report

REM GENRE “Alternative Rock”
REM DATE 2000
REM DISCID CC0D940F
REM COMMENT “ExactAudioCopy v0.99pb4”
PERFORMER “Guano Apes”
TITLE “Don’t Give Me Names”
REM DISCNUMBER 1
REM TOTALDISCS 1
FILE “01. Innocent Greed.m4a” WAVE
TRACK 01 AUDIO
TITLE “Innocent Greed”
PERFORMER “Guano Apes”
INDEX 01 00:00:00
FILE “02. No Speech.m4a” WAVE
TRACK 02 AUDIO
TITLE “No Speech”
PERFORMER “Guano Apes”
INDEX 01 00:00:00
FILE “03. Big in Japan.m4a” WAVE
TRACK 03 AUDIO
TITLE “Big in Japan”
PERFORMER “Guano Apes”
INDEX 01 00:00:00
FILE “04. Money & Milk.m4a” WAVE
TRACK 04 AUDIO
TITLE “Money & Milk”
PERFORMER “Guano Apes”
INDEX 01 00:00:00
FILE “05. Living in a Lie.m4a” WAVE
TRACK 05 AUDIO
TITLE “Living in a Lie”
PERFORMER “Guano Apes”
INDEX 01 00:00:00
FILE “06. Dodel Up.m4a” WAVE
TRACK 06 AUDIO
TITLE “Dodel Up”
PERFORMER “Guano Apes”
INDEX 01 00:00:00
FILE “07. I Want It.m4a” WAVE
TRACK 07 AUDIO
TITLE “I Want It”
PERFORMER “Guano Apes”
INDEX 01 00:00:00
FILE “08. Heaven.m4a” WAVE
TRACK 08 AUDIO
TITLE “Heaven”
PERFORMER “Guano Apes”
INDEX 01 00:00:00
FILE “09. Mine All Mine.m4a” WAVE
TRACK 09 AUDIO
TITLE “Mine All Mine”
PERFORMER “Guano Apes”
INDEX 01 00:00:00
FILE “10. Too Close to Leave.m4a” WAVE
TRACK 10 AUDIO
TITLE “Too Close to Leave”
PERFORMER “Guano Apes”
INDEX 01 00:00:00
FILE “11. Gogan.m4a” WAVE
TRACK 11 AUDIO
TITLE “Gogan”
PERFORMER “Guano Apes”
INDEX 01 00:00:00
FILE “12. Anne Claire.m4a” WAVE
TRACK 12 AUDIO
TITLE “Anne Claire”
PERFORMER “Guano Apes”
INDEX 01 00:00:00
FILE “13. Ain’t Got Time.m4a” WAVE
TRACK 13 AUDIO
TITLE “Ain’t Got Time”
PERFORMER “Guano Apes”
INDEX 01 00:00:00
FILE “14. Living in a Lie (Unplugged).m4a” WAVE
TRACK 14 AUDIO
TITLE “Living in a Lie (Unplugged)”
PERFORMER “Guano Apes”
INDEX 01 00:00:00
FILE “15. Anne Claire (Unplugged).m4a” WAVE
TRACK 15 AUDIO
TITLE “Anne Claire (Unplugged)”
PERFORMER “Guano Apes”
INDEX 01 00:00:00


Leave a Reply

Your email address will not be published. Required fields are marked *

This site uses Akismet to reduce spam. Learn how your comment data is processed.