Guano Apes – Bel Air (Deluxe Edition)




Artist: Guano Apes
Year: 2011
Genre: Alternative
Notes: Discogs
Add. Notes: Deluxe Edition
Cover incl.: Yes
Encoder: ALAC
Bitrate: ~1100 kBit/s (44.1 kHz/16 Bit/s)
Log & Cue incl.: Yes
Size: 389,01 MB
Password: “slam” (without ” “)


All Downloads/Hosters are compatible

Download 1
Turbobit.net
Rapidgator.net
UploadEver.com
KatFile.com
UsersDrive.com
Download 2
Turbobit.net
Rapidgator.net
UploadEver.com
KatFile.com
UsersDrive.com
Download 3
Turbobit.net
Rapidgator.net
UploadEver.com
KatFile.com
UsersDrive.com

Tracklist:

1 - Sunday Lover - 3:58
2 - Oh What A Night - 3:12
3 - When The Ships Arrive - 4:05
4 - This Time - 3:52
5 - She's A Killer - 3:16
6 - Tiger - 2:33
7 - Fanman - 3:52
8 - All I Wanna Do - 3:06
9 - Fire In Your Eyes - 4:38
10.1 - Trust - 3:26
10.2 - Running Out The Darkness - 3:20
Bonus Tracks
11 - Fire - 3:47
12 - Carol And Shine - 3:26

EAC-Log, CUE-Sheed & NFO:

Click to open spoiler
Exact Audio Copy V0.99 prebeta 5 from 4. May 2009

EAC extraction logfile from 2. April 2011, 5:35

Guano Apes / Bel Air (Deluxe Editon)

Used drive : HL-DT-STDVDRAM GT30N Adapter: 0 ID: 1

Read mode : Secure
Utilize accurate stream : Yes
Defeat audio cache : Yes
Make use of C2 pointers : No

Read offset correction : 103
Overread into Lead-In and Lead-Out : No
Fill up missing offset samples with silence : Yes
Delete leading and trailing silent blocks : No
Null samples used in CRC calculations : Yes
Used interface : Native Win32 interface for Win NT & 2000
Gap handling : Appended to previous track

Used output format : User Defined Encoder
Selected bitrate : 320 kBit/s
Quality : High
Add ID3 tag : No
Command line compressor : C:\Program Files (x86)\Exact Audio Copy\Flac\flac.exe
Additional command line options : -V -8 -T “artist=%a” -T “title=%t” -T “album=%g” -T “date=%y” -T “tracknumber=%n” -T “genre=%m” %s

TOC of the extracted CD

Track | Start | Length | Start sector | End sector
———————————————————
1 | 0:00.00 | 3:58.31 | 0 | 17880
2 | 3:58.31 | 3:12.28 | 17881 | 32308
3 | 7:10.59 | 4:05.26 | 32309 | 50709
4 | 11:16.10 | 3:51.38 | 50710 | 68072
5 | 15:07.48 | 3:15.40 | 68073 | 82737
6 | 18:23.13 | 2:33.05 | 82738 | 94217
7 | 20:56.18 | 3:51.41 | 94218 | 111583
8 | 24:47.59 | 3:05.41 | 111584 | 125499
9 | 27:53.25 | 4:38.30 | 125500 | 146379
10 | 32:31.55 | 7:06.38 | 146380 | 178367
11 | 39:38.18 | 3:47.19 | 178368 | 195411
12 | 43:25.37 | 3:26.12 | 195412 | 210873

Track 1

Filename C:\EACrips\Guano Apes – Bel Air (Deluxe Editon) (2011) [FLAC]\01 – Sunday Lover.wav

Pre-gap length 0:00:02.00

Peak level 99.8 %
Track quality 99.9 %
Test CRC 4C7BC827
Copy CRC 4C7BC827
Track not present in AccurateRip database
Copy OK

Track 2

Filename C:\EACrips\Guano Apes – Bel Air (Deluxe Editon) (2011) [FLAC]\02 – Oh What A Night.wav

Pre-gap length 0:00:00.38

Peak level 99.8 %
Track quality 100.0 %
Test CRC FD253421
Copy CRC FD253421
Track not present in AccurateRip database
Copy OK

Track 3

Filename C:\EACrips\Guano Apes – Bel Air (Deluxe Editon) (2011) [FLAC]\03 – When The Ships Arrive.wav

Pre-gap length 0:00:01.04

Peak level 99.8 %
Track quality 100.0 %
Test CRC 8DC89FB4
Copy CRC 8DC89FB4
Track not present in AccurateRip database
Copy OK

Track 4

Filename C:\EACrips\Guano Apes – Bel Air (Deluxe Editon) (2011) [FLAC]\04 – This Time.wav

Peak level 99.8 %
Track quality 100.0 %
Test CRC 8E1E9031
Copy CRC 8E1E9031
Track not present in AccurateRip database
Copy OK

Track 5

Filename C:\EACrips\Guano Apes – Bel Air (Deluxe Editon) (2011) [FLAC]\05 – She’s A Killer.wav

Pre-gap length 0:00:00.26

Peak level 98.6 %
Track quality 100.0 %
Test CRC 5A2B5BA2
Copy CRC 5A2B5BA2
Track not present in AccurateRip database
Copy OK

Track 6

Filename C:\EACrips\Guano Apes – Bel Air (Deluxe Editon) (2011) [FLAC]\06 – Tiger.wav

Peak level 98.6 %
Track quality 99.9 %
Test CRC C935D517
Copy CRC C935D517
Track not present in AccurateRip database
Copy OK

Track 7

Filename C:\EACrips\Guano Apes – Bel Air (Deluxe Editon) (2011) [FLAC]\07 – Fanman.wav

Peak level 99.8 %
Track quality 100.0 %
Test CRC 9519E7C4
Copy CRC 9519E7C4
Track not present in AccurateRip database
Copy OK

Track 8

Filename C:\EACrips\Guano Apes – Bel Air (Deluxe Editon) (2011) [FLAC]\08 – All I Wanna Do.wav

Peak level 99.8 %
Track quality 100.0 %
Test CRC E0564743
Copy CRC E0564743
Track not present in AccurateRip database
Copy OK

Track 9

Filename C:\EACrips\Guano Apes – Bel Air (Deluxe Editon) (2011) [FLAC]\09 – Fire In Your Eyes.wav

Peak level 99.8 %
Track quality 100.0 %
Test CRC F36024E5
Copy CRC F36024E5
Track not present in AccurateRip database
Copy OK

Track 10

Filename C:\EACrips\Guano Apes – Bel Air (Deluxe Editon) (2011) [FLAC]\10 – Trust.wav

Peak level 98.6 %
Track quality 100.0 %
Test CRC 4EB8AE16
Copy CRC 4EB8AE16
Track not present in AccurateRip database
Copy OK

Track 11

Filename C:\EACrips\Guano Apes – Bel Air (Deluxe Editon) (2011) [FLAC]\11 – Fire (Bonus Track).wav

Peak level 98.6 %
Track quality 100.0 %
Test CRC C63B55AA
Copy CRC C63B55AA
Track not present in AccurateRip database
Copy OK

Track 12

Filename C:\EACrips\Guano Apes – Bel Air (Deluxe Editon) (2011) [FLAC]\12 – Carol And Shine (Bonus Track).wav

Peak level 98.6 %
Track quality 100.0 %
Test CRC D8EC475E
Copy CRC D8EC475E
Track not present in AccurateRip database
Copy OK

None of the tracks are present in the AccurateRip database

No errors occurred

End of status report

REM GENRE “Alternative Rock”
REM DATE 2011
REM DISCID A60AFB0C
REM COMMENT “ExactAudioCopy v0.99pb5”
PERFORMER “Guano Apes”
TITLE “Bel Air”
REM DISCNUMBER 1
REM TOTALDISCS 1
FILE “01. Sunday Lover.m4a” WAVE
TRACK 01 AUDIO
PERFORMER “Guano Apes”
TITLE “Sunday Lover”
INDEX 01 00:00:00
TRACK 02 AUDIO
PERFORMER “Guano Apes”
TITLE “Oh What A Night”
INDEX 00 03:58:02
FILE “02. Oh What A Night.m4a” WAVE
INDEX 01 00:00:00
TRACK 03 AUDIO
PERFORMER “Guano Apes”
TITLE “When The Ships Arrive”
INDEX 00 03:11:25
FILE “03. When The Ships Arrive.m4a” WAVE
INDEX 01 00:00:00
FILE “04. This Time.m4a” WAVE
TRACK 04 AUDIO
PERFORMER “Guano Apes”
TITLE “This Time”
INDEX 01 00:00:00
TRACK 05 AUDIO
PERFORMER “Guano Apes”
TITLE “She’s A Killer”
INDEX 00 03:51:18
FILE “05. She’s A Killer.m4a” WAVE
INDEX 01 00:00:00
FILE “06. Tiger.m4a” WAVE
TRACK 06 AUDIO
PERFORMER “Guano Apes”
TITLE “Tiger”
INDEX 01 00:00:00
FILE “07. Fanman.m4a” WAVE
TRACK 07 AUDIO
PERFORMER “Guano Apes”
TITLE “Fanman”
INDEX 01 00:00:00
FILE “08. All I Wanna Do.m4a” WAVE
TRACK 08 AUDIO
PERFORMER “Guano Apes”
TITLE “All I Wanna Do”
INDEX 01 00:00:00
FILE “09. Fire In Your Eyes.m4a” WAVE
TRACK 09 AUDIO
PERFORMER “Guano Apes”
TITLE “Fire In Your Eyes”
INDEX 01 00:00:00
FILE “10. Trust.m4a” WAVE
TRACK 10 AUDIO
PERFORMER “Guano Apes”
TITLE “Trust”
INDEX 01 00:00:00
FILE “11. Fire (Bonus Track).m4a” WAVE
TRACK 11 AUDIO
PERFORMER “Guano Apes”
TITLE “Fire (Bonus Track)”
INDEX 01 00:00:00
FILE “12. Carol And Shine (Bonus Track).m4a” WAVE
TRACK 12 AUDIO
PERFORMER “Guano Apes”
TITLE “Carol And Shine (Bonus Track)”
INDEX 01 00:00:00


Leave a Reply

Your email address will not be published. Required fields are marked *

Enter the text from the image below
 

This site uses Akismet to reduce spam. Learn how your comment data is processed.