Guano Apes – Lost (T)Apes




Artist: Guano Apes
Year: 2006
Genre: Rock
Notes: Discogs
Add. Notes:
Cover incl.: Yes
Encoder: FLAC
Bitrate: ~1000 kBit/s (44.1 kHz/16 Bit/s)
Log & Cue incl.: Yes
Size: 327,56 MB
Password: “slam” (without ” “)


All Downloads/Hosters are compatible

Download 1
Turbobit.net
Rapidgator.net
KatFile.com
UploadRar.com
Download 2
Turbobit.net
Rapidgator.net
KatFile.com
UploadRar.com

Tracklist:

Your Song 2:29
Hanoi 2:07
Maria 3:10
Diokhan 2:42
Open Your Eyes 3:26
Get Busy 2:50
Ignaz 2:34
Rain 4:18
Wasserfliege 3:30
Come And Feel 4:36
Running Away 3:39
Dreamin' 3:47

EAC-Log, CUE-Sheed & NFO:

Click to open spoiler
Exact Audio Copy V0.99 prebeta 5 from 4. May 2009

EAC extraction logfile from 1. September 2010, 23:52

Guano Apes / Lost (T)apes

Used drive : HL-DT-STDVDRAM GSA-H42N Adapter: 1 ID: 0

Read mode : Secure
Utilize accurate stream : Yes
Defeat audio cache : Yes
Make use of C2 pointers : No

Read offset correction : 667
Overread into Lead-In and Lead-Out : No
Fill up missing offset samples with silence : Yes
Delete leading and trailing silent blocks : No
Null samples used in CRC calculations : Yes
Used interface : Native Win32 interface for Win NT & 2000
Gap handling : Appended to previous track

Used output format : User Defined Encoder
Selected bitrate : 320 kBit/s
Quality : High
Add ID3 tag : No
Command line compressor : C:\Program Files\Exact Audio Copy\Flac\flac.exe
Additional command line options : -8 -V -T “ARTIST=%a” -T “TITLE=%t” -T “ALBUM=%g” -T “DATE=%y” -T “TRACKNUMBER=%n” -T “GENRE=%m” -T “COMMENT=ripped by ahtoxa_m” %s

TOC of the extracted CD

Track | Start | Length | Start sector | End sector
———————————————————
1 | 0:00.00 | 2:30.48 | 0 | 11297
2 | 2:30.48 | 2:08.22 | 11298 | 20919
3 | 4:38.70 | 3:11.36 | 20920 | 35280
4 | 7:50.31 | 2:44.22 | 35281 | 47602
5 | 10:34.53 | 3:26.34 | 47603 | 63086
6 | 14:01.12 | 2:51.03 | 63087 | 75914
7 | 16:52.15 | 2:34.73 | 75915 | 87537
8 | 19:27.13 | 4:17.48 | 87538 | 106860
9 | 23:44.61 | 3:30.00 | 106861 | 122610
10 | 27:14.61 | 4:37.43 | 122611 | 143428
11 | 31:52.29 | 3:40.67 | 143429 | 159995
12 | 35:33.21 | 3:48.26 | 159996 | 177121

Track 1

Filename C:\2006 – Lost (T)apes (88697 05092 2)\01. Guano Apes – Your Song.wav

Pre-gap length 0:00:02.00

Peak level 97.7 %
Track quality 100.0 %
Test CRC 13FAF7B3
Copy CRC 13FAF7B3
Cannot be verified as accurate (confidence 10) [0EC922F6], AccurateRip returned [68275906]
Copy OK

Track 2

Filename C:\2006 – Lost (T)apes (88697 05092 2)\02. Guano Apes – Hanoi.wav

Peak level 97.7 %
Track quality 100.0 %
Test CRC 6B956F9A
Copy CRC 6B956F9A
Cannot be verified as accurate (confidence 10) [53CE9B85], AccurateRip returned [C52B84D5]
Copy OK

Track 3

Filename C:\2006 – Lost (T)apes (88697 05092 2)\03. Guano Apes – Maria.wav

Peak level 97.7 %
Track quality 100.0 %
Test CRC 80797539
Copy CRC 80797539
Cannot be verified as accurate (confidence 10) [FE8D2A74], AccurateRip returned [D9A9DED4]
Copy OK

Track 4

Filename C:\2006 – Lost (T)apes (88697 05092 2)\04. Guano Apes – Diokhan.wav

Peak level 97.7 %
Track quality 100.0 %
Test CRC C041C5A9
Copy CRC C041C5A9
Cannot be verified as accurate (confidence 10) [8C71F58F], AccurateRip returned [5908C33F]
Copy OK

Track 5

Filename C:\2006 – Lost (T)apes (88697 05092 2)\05. Guano Apes – Open Your Eyes.wav

Peak level 97.7 %
Track quality 100.0 %
Test CRC FCBD63CA
Copy CRC FCBD63CA
Cannot be verified as accurate (confidence 10) [24657B54], AccurateRip returned [25C5FAE4]
Copy OK

Track 6

Filename C:\2006 – Lost (T)apes (88697 05092 2)\06. Guano Apes – Get Busy.wav

Peak level 97.7 %
Track quality 100.0 %
Test CRC 6BF259BE
Copy CRC 6BF259BE
Cannot be verified as accurate (confidence 10) [3210A362], AccurateRip returned [0789C112]
Copy OK

Track 7

Filename C:\2006 – Lost (T)apes (88697 05092 2)\07. Guano Apes – Ignaz.wav

Peak level 97.7 %
Track quality 100.0 %
Test CRC A5E57CC2
Copy CRC A5E57CC2
Cannot be verified as accurate (confidence 10) [328F1E7A], AccurateRip returned [DC4323AA]
Copy OK

Track 8

Filename C:\2006 – Lost (T)apes (88697 05092 2)\08. Guano Apes – Rain.wav

Peak level 97.7 %
Track quality 100.0 %
Test CRC C6D5CB51
Copy CRC C6D5CB51
Cannot be verified as accurate (confidence 10) [FF069A9F], AccurateRip returned [716C2FE7]
Copy OK

Track 9

Filename C:\2006 – Lost (T)apes (88697 05092 2)\09. Guano Apes – Wasserfliege.wav

Peak level 97.7 %
Track quality 100.0 %
Test CRC 76CC1E6E
Copy CRC 76CC1E6E
Cannot be verified as accurate (confidence 10) [16DEF598], AccurateRip returned [783ACA00]
Copy OK

Track 10

Filename C:\2006 – Lost (T)apes (88697 05092 2)\10. Guano Apes – Come And Feel.wav

Peak level 97.7 %
Track quality 100.0 %
Test CRC 9199A493
Copy CRC 9199A493
Cannot be verified as accurate (confidence 10) [A52648A6], AccurateRip returned [536DDA36]
Copy OK

Track 11

Filename C:\2006 – Lost (T)apes (88697 05092 2)\11. Guano Apes – Running Away.wav

Peak level 97.7 %
Track quality 100.0 %
Test CRC 62C3D0B9
Copy CRC 62C3D0B9
Cannot be verified as accurate (confidence 10) [3D532530], AccurateRip returned [D5967908]
Copy OK

Track 12

Filename C:\2006 – Lost (T)apes (88697 05092 2)\12. Guano Apes – Dreamin’.wav

Peak level 97.7 %
Track quality 100.0 %
Test CRC 6F386321
Copy CRC 6F386321
Cannot be verified as accurate (confidence 10) [D7D8BAAE], AccurateRip returned [073AB386]
Copy OK

No tracks could be verified as accurate
You may have a different pressing from the one(s) in the database

No errors occurred

End of status report


Leave a Reply

Your email address will not be published. Required fields are marked *

Enter the text from the image below
 

This site uses Akismet to reduce spam. Learn how your comment data is processed.