Greta Van Fleet – From The Fires




Artist: Greta Van Fleet
Year: 2017
Genre: Rock
Notes: Discogs
Add. Notes:
Cover incl.: Yes
Encoder: FLAC
Bitrate: ~800 kBit/s (44.1 kHz/16 Bit/s)
Log & Cue incl.: Yes
Size: 272 MB
Password: “slam” (without ” “)


All Downloads/Hosters are compatible

Download 1
KatFile.com
Rapidgator.net
Turbobit.net
FileFactory.com
Download 2
KatFile.com
Rapidgator.net
Turbobit.net
FileFactory.com

Tracklist:

1 - Safari Song - 3:55
2 - Edge Of Darkness - 4:28
3 - Flower Power - 5:13
4 - A Change Is Gonna Come - 3:17
5 - Highway Tune - 3:01
6 - Meet On The Ledge - 3:50
7 - Talk On The Street - 4:09
8 - Black Smoke Rising - 4:20

EAC-Log, CUE-Sheed & NFO:

Click to open spoiler
Exact Audio Copy V1.3 from 2. September 2016

EAC extraction logfile from 6. January 2018, 15:29

Greta Van Fleet / From The Fires [EU]

Used drive : ASUS DRW-24B3ST Adapter: 1 ID: 0

Read mode : Secure
Utilize accurate stream : Yes
Defeat audio cache : Yes
Make use of C2 pointers : No

Read offset correction : 6
Overread into Lead-In and Lead-Out : No
Fill up missing offset samples with silence : Yes
Delete leading and trailing silent blocks : No
Null samples used in CRC calculations : Yes
Used interface : Native Win32 interface for Win NT & 2000
Gap handling : Appended to previous track

Used output format : Internal WAV Routines
Sample format : 44.100 Hz; 16 Bit; Stereo

TOC of the extracted CD

Track | Start | Length | Start sector | End sector
———————————————————
1 | 0:00.00 | 3:54.45 | 0 | 17594
2 | 3:54.45 | 4:28.30 | 17595 | 37724
3 | 8:23.00 | 5:12.40 | 37725 | 61164
4 | 13:35.40 | 3:17.06 | 61165 | 75945
5 | 16:52.46 | 3:00.48 | 75946 | 89493
6 | 19:53.19 | 3:49.43 | 89494 | 106711
7 | 23:42.62 | 4:08.42 | 106712 | 125353
8 | 27:51.29 | 4:19.67 | 125354 | 144845

Track 1

Filename G:\01 – Safari Song.wav

Pre-gap length 0:00:02.00

Peak level 98.0 %
Extraction speed 1.8 X
Track quality 100.0 %
Test CRC FD597160
Copy CRC FD597160
Track not present in AccurateRip database
Copy OK

Track 2

Filename G:\02 – Edge Of Darkness.wav

Peak level 97.7 %
Extraction speed 2.1 X
Track quality 100.0 %
Test CRC BEE84759
Copy CRC BEE84759
Track not present in AccurateRip database
Copy OK

Track 3

Filename G:\03 – Flower Power.wav

Peak level 97.9 %
Extraction speed 2.3 X
Track quality 100.0 %
Test CRC C98932CB
Copy CRC C98932CB
Track not present in AccurateRip database
Copy OK

Track 4

Filename G:\04 – A Change Is Gonna Come.wav

Peak level 97.7 %
Extraction speed 2.3 X
Track quality 100.0 %
Test CRC 4E2CD9B0
Copy CRC 4E2CD9B0
Track not present in AccurateRip database
Copy OK

Track 5

Filename G:\05 – Highway Tune.wav

Peak level 97.9 %
Extraction speed 2.4 X
Track quality 100.0 %
Test CRC 3E3801BF
Copy CRC 3E3801BF
Track not present in AccurateRip database
Copy OK

Track 6

Filename G:\06 – Meet On The Ledge.wav

Peak level 97.7 %
Extraction speed 2.7 X
Track quality 100.0 %
Test CRC 28B8E145
Copy CRC 28B8E145
Track not present in AccurateRip database
Copy OK

Track 7

Filename G:\07 – Talk On The Street.wav

Peak level 97.7 %
Extraction speed 2.8 X
Track quality 100.0 %
Test CRC B50C19FE
Copy CRC B50C19FE
Track not present in AccurateRip database
Copy OK

Track 8

Filename G:\08 – Black Smoke Rising.wav

Peak level 98.0 %
Extraction speed 3.0 X
Track quality 100.0 %
Test CRC 23604FCC
Copy CRC 23604FCC
Track not present in AccurateRip database
Copy OK

None of the tracks are present in the AccurateRip database

No errors occurred

End of status report

==== Log checksum 90E4747BF50B0A633DC88A8716C004681C412914731666779468C54165D3769A ====

REM GENRE Rock
REM DATE 2017
REM DISCID 59078B08
REM COMMENT “ExactAudioCopy v1.3”
PERFORMER “Greta Van Fleet”
TITLE “From The Fires”
FILE “01 – Safari Song.wav” WAVE
TRACK 01 AUDIO
TITLE “Safari Song”
PERFORMER “Greta Van Fleet”
FLAGS DCP
INDEX 01 00:00:00
FILE “02 – Edge Of Darkness.wav” WAVE
TRACK 02 AUDIO
TITLE “Edge Of Darkness”
PERFORMER “Greta Van Fleet”
FLAGS DCP
INDEX 01 00:00:00
FILE “03 – Flower Power.wav” WAVE
TRACK 03 AUDIO
TITLE “Flower Power”
PERFORMER “Greta Van Fleet”
FLAGS DCP
INDEX 01 00:00:00
FILE “04 – A Change Is Gonna Come.wav” WAVE
TRACK 04 AUDIO
TITLE “A Change Is Gonna Come”
PERFORMER “Greta Van Fleet”
FLAGS DCP
INDEX 01 00:00:00
FILE “05 – Highway Tune.wav” WAVE
TRACK 05 AUDIO
TITLE “Highway Tune”
PERFORMER “Greta Van Fleet”
FLAGS DCP
INDEX 01 00:00:00
FILE “06 – Meet On The Ledge.wav” WAVE
TRACK 06 AUDIO
TITLE “Meet On The Ledge”
PERFORMER “Greta Van Fleet”
FLAGS DCP
INDEX 01 00:00:00
FILE “07 – Talk On The Street.wav” WAVE
TRACK 07 AUDIO
TITLE “Talk On The Street”
PERFORMER “Greta Van Fleet”
FLAGS DCP
INDEX 01 00:00:00
FILE “08 – Black Smoke Rising.wav” WAVE
TRACK 08 AUDIO
TITLE “Black Smoke Rising”
PERFORMER “Greta Van Fleet”
FLAGS DCP
INDEX 01 00:00:00


Leave a Reply

Your email address will not be published. Required fields are marked *

Enter the text from the image below
 

This site uses Akismet to reduce spam. Learn how your comment data is processed.