Green Day – Warning




No Cover available

Artist: Green Day
Year: 2000
Genre: Alternative
Notes: Discogs
Add. Notes:
Watch Songs on: YouTube
Cover incl.: No
Encoder: FLAC
Bitrate: ~5500 kBit/s (192 kHz/24 Bit/s)
Log & Cue incl.: No, but seperate Tracks
Size: 1585,4 MB
Password: “slam” (without ” “)


All Downloads/Hosters are compatible

Download 1
KatFile.com
Turbobit.net
FileFactory.com
Rapidgator.net
Download 2
KatFile.com
Turbobit.net
FileFactory.com
Rapidgator.net

Tracklist:

1 - Warning - 3:42
2 - Blood, Sex And Booze - 3:33
3 - Church On Sunday - 3:18
4 - Fashion Victim - 2:48
5 - Castaway - 3:52
6 - Misery - 5:05
7 - Deadbeat Holiday - 3:35
8 - Hold On - 2:56
9 - Jackass - 2:43
10 - Waiting - 3:13
11 - Minority - 2:49
12 - Macy's Day Parade - 3:34

EAC-Log, CUE-Sheed & NFO:

Click to open spoiler
foobar2000 1.3.14 / Замер динамического диапазона (DR) 1.1.1
Дата отчёта: 2017-08-30 20:24:21

——————————————————————————–
Анализ: Green Day / Warning
——————————————————————————–

DR Пики RMS Продолжительность трека
——————————————————————————–
DR6 -0.20 дБ -6.91 дБ 3:43 01-Warning
DR6 -0.20 дБ -7.76 дБ 3:33 02-Blood, Sex and Booze
DR5 -0.20 дБ -5.84 дБ 3:19 03-Church On Sunday
DR6 -0.20 дБ -6.74 дБ 2:49 04-Fashion Victim
DR5 -0.20 дБ -5.74 дБ 3:53 05-Castaway
DR8 -0.20 дБ -9.33 дБ 5:06 06-Misery
DR6 -0.20 дБ -7.72 дБ 3:35 07-Deadbeat Holiday
DR5 -0.20 дБ -6.83 дБ 2:57 08-Hold On
DR6 -0.20 дБ -7.18 дБ 2:43 09-Jackass
DR5 -0.20 дБ -7.06 дБ 3:14 10-Waiting
DR5 -0.20 дБ -6.64 дБ 2:49 11-Minority
DR6 -0.20 дБ -7.00 дБ 3:34 12-Macy’s Day Parade
——————————————————————————–

Количество треков: 12
Реальные значения DR: DR6

Частота: 192000 Гц
Каналов: 2
Разрядность: 24
Битрейт: 5122 кбит/с
Кодек: FLAC
================================================================================


Leave a Reply

Your email address will not be published. Required fields are marked *

Enter the text from the image below
 

This site uses Akismet to reduce spam. Learn how your comment data is processed.