Green Day – Father Of All Motherfuckers




No Cover available

Artist: Green Day
Year: 2020
Genre: Punk
Notes: Discogs
Add. Notes:
Watch Songs on: YouTube
Cover incl.: Yes
Encoder: FLAC
Bitrate: ~900 kBit/s (44.1 kHz/16 Bit/s)
Log & Cue incl.: Yes/Yes
Size: 184,2 MB
Password: “slam” (without ” “)


All Downloads/Hosters are compatible

Download 1
KatFile.com
Turbobit.net
Rapidgator.net
FileFactory.com
Download 2
KatFile.com
Turbobit.net
Rapidgator.net
FileFactory.com

Tracklist:

1 Father Of All... 2:28
2 Fire, Ready, Aim 1:50
3 Oh Yeah! 2:47
4 Meet Me On The Roof 2:34
5 I Was A Teenage Teenager 3:52
6 Stab You In The Heart 2:09
7 Sugar Youth 1:51
8 Junkies On A High 3:02
9 Take The Money And Crawl 2:05
10 Graffitia 3:15

EAC-Log, CUE-Sheed & NFO:

Click to open spoiler
———————–

DON’T MODIFY THIS FILE

———————–

PERFORMER: auCDtect Task Manager, ver. 1.6.0 RC1 build 1.6.0.1
Copyright (c) 2008-2010 y-soft. All rights reserved
http://y-soft.org

ANALYZER: auCDtect: CD records authenticity detector, version 0.8.2
Copyright (c) 2004 Oleg Berngardt. All rights reserved.
Copyright (c) 2004 Alexander Djourik. All rights reserved.

FILE: 02 Fire, Ready, Aim.flac
Size: 15414065 Hash: A178ED1DD754FE239067B7D8E0C4A805 Accuracy: -m0
Conclusion: CDDA 100%
Signature: A3FAF35829EFA341106C3A3B7FD6A5C1EAA70708
FILE: 01 Father Of All….flac
Size: 21101662 Hash: 1323EBF9CE237C274E3C50D40655F2FF Accuracy: -m0
Conclusion: CDDA 100%
Signature: C3FE7D9A65F2E005C2DFB0730DD37B348D7D7498
FILE: 10 Graffitia.flac
Size: 22393243 Hash: D8CF777E66105BD3C60D6E0EA8D004D2 Accuracy: -m0
Conclusion: CDDA 100%
Signature: E6A7B21B5400FB1DB85434D2B1B72D37A023A66C
FILE: 09 Take The Money & Crawl.flac
Size: 16353055 Hash: BC68EF70F648B48B57A87FFCB95D9325 Accuracy: -m0
Conclusion: CDDA 100%
Signature: 806D973ABC0597114D813DFAB83A7F7E4C9B269B
FILE: 08 Junkies On A High.flac
Size: 20470915 Hash: ECCEB636F5269B3A5A51DF9E6A2EFB10 Accuracy: -m0
Conclusion: CDDA 100%
Signature: 875587D0D967B4316759B258FE913C2DC39A26C7
FILE: 07 Sugar Youth.flac
Size: 15948469 Hash: D53E154BCAD62BC2205D6F1C56AAD52C Accuracy: -m0
Conclusion: CDDA 99%
Signature: 78024FAAE5012F262672C30E36272A8A21F72E18
FILE: 06 Stab You In The Heart.flac
Size: 16636943 Hash: 72FC6E84B8672E1B930F402827AD8FE5 Accuracy: -m0
Conclusion: CDDA 100%
Signature: 6796F70462EABE7D8A1DF357848DA30B46987187
FILE: 05 I Was A Teenager Teenager.flac
Size: 25294939 Hash: C0902E984791A571D7A42B8BC467907C Accuracy: -m0
Conclusion: CDDA 99%
Signature: 535FECA3A2B083B9316A60AE80DEC8D90ABF1C50
FILE: 04 Meet Me On The Roof.flac
Size: 19688047 Hash: C5225D0AC562C12553C15DB96F413A53 Accuracy: -m0
Conclusion: MPEG 95%
Signature: C29E2AFAC55FB5C9D213F49E035D6CE4185CCF32
FILE: 03 Oh Yeah!.flac
Size: 19689615 Hash: 69DC68F5AC4700BB145005F2BE89FAE8 Accuracy: -m0
Conclusion: CDDA 100%
Signature: 46C51E2204BBE63FE1A1F8697F86BF39395C7EC2

REM GENRE Rock
REM DATE 2020-02-07
PERFORMER “Green Day”
TITLE “Father Of All Motherfuckers”
FILE “01 Father Of All….flac” WAVE
TRACK 01 AUDIO
TITLE “Father Of All…”
PERFORMER “Green Day”
INDEX 01 00:00:00
FILE “02 Fire, Ready, Aim.flac” WAVE
TRACK 02 AUDIO
TITLE “Fire, Ready, Aim”
PERFORMER “Green Day”
INDEX 01 00:00:00
FILE “03 Oh Yeah!.flac” WAVE
TRACK 03 AUDIO
TITLE “Oh Yeah!”
PERFORMER “Green Day”
INDEX 01 00:00:00
FILE “04 Meet Me On The Roof.flac” WAVE
TRACK 04 AUDIO
TITLE “Meet Me On The Roof”
PERFORMER “Green Day”
INDEX 01 00:00:00
FILE “05 I Was A Teenager Teenager.flac” WAVE
TRACK 05 AUDIO
TITLE “I Was A Teenager Teenager”
PERFORMER “Green Day”
INDEX 01 00:00:00
FILE “06 Stab You In The Heart.flac” WAVE
TRACK 06 AUDIO
TITLE “Stab You In The Heart”
PERFORMER “Green Day”
INDEX 01 00:00:00
FILE “07 Sugar Youth.flac” WAVE
TRACK 07 AUDIO
TITLE “Sugar Youth”
PERFORMER “Green Day”
INDEX 01 00:00:00
FILE “08 Junkies On A High.flac” WAVE
TRACK 08 AUDIO
TITLE “Junkies On A High”
PERFORMER “Green Day”
INDEX 01 00:00:00
FILE “09 Take The Money & Crawl.flac” WAVE
TRACK 09 AUDIO
TITLE “Take The Money & Crawl”
PERFORMER “Green Day”
INDEX 01 00:00:00
FILE “10 Graffitia.flac” WAVE
TRACK 10 AUDIO
TITLE “Graffitia”
PERFORMER “Green Day”
INDEX 01 00:00:00


Leave a Reply

Your email address will not be published. Required fields are marked *

Enter the text from the image below
 

This site uses Akismet to reduce spam. Learn how your comment data is processed.