Green Day – Dookie




No Cover available

Artist: Green Day
Year: 1994
Genre: Punk
Notes: Discogs
Add. Notes:
Watch Songs on: YouTube
Cover incl.: No
Encoder: FLAC
Bitrate: ~1000 kBit/s (44.1 kHz/16 Bit/s)
Log & Cue incl.: Yes
Size: 271,3 MB
Password: “slam” (without ” “)


All Downloads/Hosters are compatible

Download 1
KatFile.com
Turbobit.net
FileFactory.com
Rapidgator.net
Download 2
KatFile.com
Turbobit.net
FileFactory.com
Rapidgator.net

Tracklist:

1. Burnout 2:07
2. Having A Blast 2:44
3. Chump 2:54
4. Longview 3:59
5. Welcome To Paradise 3:44
6. Pulling Teeth 2:30
7. Basket Case 3:03
8. She 2:14
9. Sassafras Roots 2:37
10. When I Come Around 2:58
11. Coming Clean 1:34
12. E menius Sleepus 1:43
13. In The End 1:46
14.1. F.O.D. 4:08
14.2. All By Myself 1:38

EAC-Log, CUE-Sheed & NFO:

Click to open spoiler
EAC extraction logfile from 14. February 2007, 2:25 for CD
Green Day / Dookie

Used drive : TSSTcorpCD/DVDW SH-S182M Adapter: 0 ID: 0
Read mode : Secure with NO C2, accurate stream, disable cache
Read offset correction : 6
Overread into Lead-In and Lead-Out : No

Used output format : C:\Flac\flac.exe (User Defined Encoder)
192 kBit/s
Additional command line options : -8 -A tukey(0.25) -A gauss(0.1875) -b 4096 -V -T “artist=%a” -T “title=%t” -T “album=%g” -T “date=%y” -T “tracknumber=%n” -T “genre=%m” %s –sector-align

Other options :
Fill up missing offset samples with silence : Yes
Delete leading and trailing silent blocks : No
Installed external ASPI interface

Track 1
Filename C:\Program Files\BitLord\Downloads\Green Day – Dookie (Flac)\01 – Green Day – Burnout.wav

Pre-gap length 0:00:02.00

Peak level 97.7 %
Track quality 100.0 %
Test CRC A0AFB3B8
Copy CRC A0AFB3B8
Copy OK

Track 2
Filename C:\Program Files\BitLord\Downloads\Green Day – Dookie (Flac)\02 – Green Day – Having A Blast.wav

Peak level 97.7 %
Track quality 100.0 %
Test CRC E19C1F3A
Copy CRC E19C1F3A
Copy OK

Track 3
Filename C:\Program Files\BitLord\Downloads\Green Day – Dookie (Flac)\03 – Green Day – Chump.wav

Peak level 97.7 %
Track quality 100.0 %
Test CRC E6B5C673
Copy CRC E6B5C673
Copy OK

Track 4
Filename C:\Program Files\BitLord\Downloads\Green Day – Dookie (Flac)\04 – Green Day – Long View.wav

Peak level 97.7 %
Track quality 100.0 %
Test CRC 28641464
Copy CRC 28641464
Copy OK

Track 5
Filename C:\Program Files\BitLord\Downloads\Green Day – Dookie (Flac)\05 – Green Day – Welcome To Paradise.wav

Pre-gap length 0:00:00.26

Peak level 97.7 %
Track quality 100.0 %
Test CRC 8C499624
Copy CRC 8C499624
Copy OK

Track 6
Filename C:\Program Files\BitLord\Downloads\Green Day – Dookie (Flac)\06 – Green Day – Pulling Teeth.wav

Peak level 97.7 %
Track quality 100.0 %
Test CRC 620BA105
Copy CRC 620BA105
Copy OK

Track 7
Filename C:\Program Files\BitLord\Downloads\Green Day – Dookie (Flac)\07 – Green Day – Basket Case.wav

Peak level 97.7 %
Track quality 100.0 %
Test CRC 52CC233A
Copy CRC 52CC233A
Copy OK

Track 8
Filename C:\Program Files\BitLord\Downloads\Green Day – Dookie (Flac)\08 – Green Day – She.wav

Pre-gap length 0:00:02.06

Peak level 97.7 %
Track quality 100.0 %
Test CRC 0313EDFB
Copy CRC 0313EDFB
Copy OK

Track 9
Filename C:\Program Files\BitLord\Downloads\Green Day – Dookie (Flac)\09 – Green Day – Sassafras Roots.wav

Peak level 97.7 %
Track quality 100.0 %
Test CRC 28778898
Copy CRC 28778898
Copy OK

Track 10
Filename C:\Program Files\BitLord\Downloads\Green Day – Dookie (Flac)\10 – Green Day – When I Come Around.wav

Peak level 99.9 %
Track quality 100.0 %
Test CRC 53D07E98
Copy CRC 53D07E98
Copy OK

Track 11
Filename C:\Program Files\BitLord\Downloads\Green Day – Dookie (Flac)\11 – Green Day – Coming Clean.wav

Peak level 97.7 %
Track quality 99.8 %
Test CRC C23A78D7
Copy CRC C23A78D7
Copy OK

Track 12
Filename C:\Program Files\BitLord\Downloads\Green Day – Dookie (Flac)\12 – Green Day – Emenius Sleepus.wav

Peak level 100.0 %
Track quality 99.8 %
Test CRC A397A721
Copy CRC A397A721
Copy OK

Track 13
Filename C:\Program Files\BitLord\Downloads\Green Day – Dookie (Flac)\13 – Green Day – In The End.wav

Peak level 97.7 %
Track quality 100.0 %
Test CRC D8CB9C1E
Copy CRC D8CB9C1E
Copy OK

Track 14
Filename C:\Program Files\BitLord\Downloads\Green Day – Dookie (Flac)\14 – Green Day – F.O.D..wav

Peak level 97.7 %
Track quality 99.9 %
Test CRC E27D5A75
Copy CRC E27D5A75
Copy OK

No errors occured

End of status report

REM GENRE “Punk Rock”
REM DATE 1994
REM DISCID B009520E
REM COMMENT “ExactAudioCopy v0.95b3”
PERFORMER “Green Day”
TITLE “Dookie”
FILE “01 – Green Day – Burnout.wav” WAVE
TRACK 01 AUDIO
TITLE “Burnout”
PERFORMER “Green Day”
INDEX 01 00:00:00
FILE “02 – Green Day – Having A Blast.wav” WAVE
TRACK 02 AUDIO
TITLE “Having A Blast”
PERFORMER “Green Day”
INDEX 01 00:00:00
FILE “03 – Green Day – Chump.wav” WAVE
TRACK 03 AUDIO
TITLE “Chump”
PERFORMER “Green Day”
INDEX 01 00:00:00
FILE “04 – Green Day – Long View.wav” WAVE
TRACK 04 AUDIO
TITLE “Long View”
PERFORMER “Green Day”
INDEX 01 00:00:00
TRACK 05 AUDIO
TITLE “Welcome To Paradise”
PERFORMER “Green Day”
INDEX 00 03:58:65
FILE “05 – Green Day – Welcome To Paradise.wav” WAVE
INDEX 01 00:00:00
FILE “06 – Green Day – Pulling Teeth.wav” WAVE
TRACK 06 AUDIO
TITLE “Pulling Teeth”
PERFORMER “Green Day”
INDEX 01 00:00:00
FILE “07 – Green Day – Basket Case.wav” WAVE
TRACK 07 AUDIO
TITLE “Basket Case”
PERFORMER “Green Day”
INDEX 01 00:00:00
TRACK 08 AUDIO
TITLE “She”
PERFORMER “Green Day”
INDEX 00 03:01:10
FILE “08 – Green Day – She.wav” WAVE
INDEX 01 00:00:00
FILE “09 – Green Day – Sassafras Roots.wav” WAVE
TRACK 09 AUDIO
TITLE “Sassafras Roots”
PERFORMER “Green Day”
INDEX 01 00:00:00
FILE “10 – Green Day – When I Come Around.wav” WAVE
TRACK 10 AUDIO
TITLE “When I Come Around”
PERFORMER “Green Day”
INDEX 01 00:00:00
FILE “11 – Green Day – Coming Clean.wav” WAVE
TRACK 11 AUDIO
TITLE “Coming Clean”
PERFORMER “Green Day”
INDEX 01 00:00:00
FILE “12 – Green Day – Emenius Sleepus.wav” WAVE
TRACK 12 AUDIO
TITLE “Emenius Sleepus”
PERFORMER “Green Day”
INDEX 01 00:00:00
FILE “13 – Green Day – In The End.wav” WAVE
TRACK 13 AUDIO
TITLE “In The End”
PERFORMER “Green Day”
INDEX 01 00:00:00
FILE “14 – Green Day – F.O.D..wav” WAVE
TRACK 14 AUDIO
TITLE “F.O.D.”
PERFORMER “Green Day”
INDEX 01 00:00:00


Leave a Reply

Your email address will not be published. Required fields are marked *

This site uses Akismet to reduce spam. Learn how your comment data is processed.