Green Day – 21st Century Breakdown (Target Limited Edition)




No Cover available

Artist: Green Day
Year: 2009
Genre: Punk
Notes: Discogs
Add. Notes: Limited Edition
Watch Songs on: YouTube
Cover incl.: No
Encoder: FLAC
Bitrate: ~1000 kBit/s (44.1 kHz/16 Bit/s)
Log & Cue incl.: Yes
Size: 712 MB
Password: “slam” (without ” “)


All Downloads/Hosters are compatible

Download 1
KatFile.com
Turbobit.net
FileFactory.com
Rapidgator.net
Download 2
KatFile.com
Turbobit.net
FileFactory.com
Rapidgator.net

Tracklist:

1-1 - Song Of The Century - 0:58
Act I - Heroes And Cons
1-2 - 21st Century Breakdown - 5:09
1-3 - Know Your Enemy - 3:10
1-4 - ¡Viva La Gloria! - 3:31
1-5 - Before The Lobotomy - 4:37
1-6 - Christian's Inferno - 3:07
1-7 - Last Night On Earth - 3:57
Act II - Charlatans And Saints
1-8 - East Jesus Nowhere - 4:35
1-9 - Peacemaker - 3:24
1-10 - Last Of The American Girls - 3:51
1-11 - Murder City - 2:54
1-12 - ¿Viva La Gloria? (Little Girl) - 3:48
1-13 - Restless Heart Syndrome - 4:21
Act III - Horseshoes And Handgrenades
1-14 - Horseshoes And Handgrenades - 3:14
1-15 - The Static Age - 4:17
1-16 - 21 Guns - 5:21
1-17 - American Eulogy - 4:26
1-17a - Mass Hysteria - 
1-17b - Modern World - 
1-18 - See The Light - 4:36
Live In Japan
2-1 - American Idiot - 4:18
2-2 - Jesus Of Suburbia - 9:22
2-3 - Holiday - 4:33
2-4 - Are We The Waiting - 3:18
2-5 - St. Jimmy - 2:57
2-6 - Boulevard Of Broken Dreams - 4:41

EAC-Log, CUE-Sheed & NFO:

Click to open spoiler
Exact Audio Copy V1.0 beta 2 from 29. April 2011

EAC extraction logfile from 15. October 2011, 10:26

Green Day / 21st Century Breakdown

Used drive : hp CDDVDW TS-H653R Adapter: 1 ID: 0

Read mode : Secure
Utilize accurate stream : Yes
Defeat audio cache : Yes
Make use of C2 pointers : No

Read offset correction : 6
Overread into Lead-In and Lead-Out : No
Fill up missing offset samples with silence : Yes
Delete leading and trailing silent blocks : No
Null samples used in CRC calculations : Yes
Used interface : Native Win32 interface for Win NT & 2000
Gap handling : Appended to previous track

Used output format : User Defined Encoder
Selected bitrate : 1024 kBit/s
Quality : High
Add ID3 tag : No
Command line compressor : C:\Program Files (x86)\Exact Audio Copy\Flac\flac.exe
Additional command line options : -8 -V -T “ARTIST=%artist%” -T “TITLE=%title%” -T “ALBUM=%albumtitle%” -T “DATE=%year%” -T “TRACKNUMBER=%tracknr%” -T “GENRE=%genre%” -T “PERFORMER=%albuminterpret%” -T “COMPOSER=%composer%” %haslyrics%–tag-from-file=LYRICS

TOC of the extracted CD

Track | Start | Length | Start sector | End sector
———————————————————
1 | 0:00.00 | 0:57.58 | 0 | 4332
2 | 0:57.58 | 5:09.08 | 4333 | 27515
3 | 6:06.66 | 3:10.17 | 27516 | 41782
4 | 9:17.08 | 3:30.38 | 41783 | 57570
5 | 12:47.46 | 4:37.01 | 57571 | 78346
6 | 17:24.47 | 3:07.05 | 78347 | 92376
7 | 20:31.52 | 3:56.40 | 92377 | 110116
8 | 24:28.17 | 4:34.53 | 110117 | 130719
9 | 29:02.70 | 3:24.06 | 130720 | 146025
10 | 32:27.01 | 3:51.02 | 146026 | 163352
11 | 36:18.03 | 2:54.32 | 163353 | 176434
12 | 39:12.35 | 3:47.51 | 176435 | 193510
13 | 43:00.11 | 4:21.37 | 193511 | 213122
14 | 47:21.48 | 3:14.05 | 213123 | 227677
15 | 50:35.53 | 4:16.47 | 227678 | 246924
16 | 54:52.25 | 5:21.07 | 246925 | 271006
17 | 60:13.32 | 4:26.08 | 271007 | 290964
18 | 64:39.40 | 4:35.70 | 290965 | 311659

Track 1

Filename C:\stone cold tempin’\Green Day – 21st Century Breakdown (Target Limited Edition) FLAC\Disc 1 – 21st Century Breakdown\01 – Song of the Century.wav

Pre-gap length 0:00:02.00

Peak level 53.8 %
Extraction speed 1.8 X
Track quality 99.8 %
Test CRC 4AE0122C
Copy CRC 4AE0122C
Accurately ripped (confidence 27) [5FDD0AAF] (AR v2)
Copy OK

Track 2

Filename C:\stone cold tempin’\Green Day – 21st Century Breakdown (Target Limited Edition) FLAC\Disc 1 – 21st Century Breakdown\02 – 21st Century Breakdown.wav

Peak level 100.0 %
Extraction speed 4.2 X
Track quality 99.9 %
Test CRC 0BA17518
Copy CRC 0BA17518
Accurately ripped (confidence 27) [A2F923D5] (AR v2)
Copy OK

Track 3

Filename C:\stone cold tempin’\Green Day – 21st Century Breakdown (Target Limited Edition) FLAC\Disc 1 – 21st Century Breakdown\03 – Know Your Enemy.wav

Peak level 100.0 %
Extraction speed 3.9 X
Track quality 99.9 %
Test CRC 00B1CCED
Copy CRC 00B1CCED
Accurately ripped (confidence 27) [11D85816] (AR v2)
Copy OK

Track 4

Filename C:\stone cold tempin’\Green Day – 21st Century Breakdown (Target Limited Edition) FLAC\Disc 1 – 21st Century Breakdown\04 – ¡Viva La Gloria!.wav

Peak level 100.0 %
Extraction speed 4.3 X
Track quality 99.9 %
Test CRC 35F9083D
Copy CRC 35F9083D
Accurately ripped (confidence 26) [04DA990D] (AR v2)
Copy OK

Track 5

Filename C:\stone cold tempin’\Green Day – 21st Century Breakdown (Target Limited Edition) FLAC\Disc 1 – 21st Century Breakdown\05 – Before the Lobotomy.wav

Peak level 100.0 %
Extraction speed 6.1 X
Track quality 100.0 %
Test CRC 1AD750A1
Copy CRC 1AD750A1
Accurately ripped (confidence 27) [76E9393D] (AR v2)
Copy OK

Track 6

Filename C:\stone cold tempin’\Green Day – 21st Century Breakdown (Target Limited Edition) FLAC\Disc 1 – 21st Century Breakdown\06 – Christian’s Inferno.wav

Peak level 100.0 %
Extraction speed 6.0 X
Track quality 100.0 %
Test CRC 1A5BEF7B
Copy CRC 1A5BEF7B
Accurately ripped (confidence 27) [68C7E8ED] (AR v2)
Copy OK

Track 7

Filename C:\stone cold tempin’\Green Day – 21st Century Breakdown (Target Limited Edition) FLAC\Disc 1 – 21st Century Breakdown\07 – Last Night on Earth.wav

Peak level 100.0 %
Extraction speed 6.4 X
Track quality 100.0 %
Test CRC 8335BF39
Copy CRC 8335BF39
Accurately ripped (confidence 27) [52F3D4CF] (AR v2)
Copy OK

Track 8

Filename C:\stone cold tempin’\Green Day – 21st Century Breakdown (Target Limited Edition) FLAC\Disc 1 – 21st Century Breakdown\08 – East Jesus Nowhere.wav

Peak level 100.0 %
Extraction speed 7.0 X
Track quality 100.0 %
Test CRC 1A9891A1
Copy CRC 1A9891A1
Accurately ripped (confidence 26) [F31970F0] (AR v2)
Copy OK

Track 9

Filename C:\stone cold tempin’\Green Day – 21st Century Breakdown (Target Limited Edition) FLAC\Disc 1 – 21st Century Breakdown\09 – Peacemaker.wav

Peak level 100.0 %
Extraction speed 7.0 X
Track quality 100.0 %
Test CRC E863B397
Copy CRC E863B397
Accurately ripped (confidence 25) [E0CD6DF9] (AR v2)
Copy OK

Track 10

Filename C:\stone cold tempin’\Green Day – 21st Century Breakdown (Target Limited Edition) FLAC\Disc 1 – 21st Century Breakdown\10 – Last of the American Girls.wav

Peak level 100.0 %
Extraction speed 7.3 X
Track quality 100.0 %
Test CRC A7A24846
Copy CRC A7A24846
Accurately ripped (confidence 27) [3201E356] (AR v2)
Copy OK

Track 11

Filename C:\stone cold tempin’\Green Day – 21st Century Breakdown (Target Limited Edition) FLAC\Disc 1 – 21st Century Breakdown\11 – Murder City.wav

Peak level 100.0 %
Extraction speed 7.2 X
Track quality 100.0 %
Test CRC 7936C271
Copy CRC 7936C271
Accurately ripped (confidence 27) [D2BC8EF9] (AR v2)
Copy OK

Track 12

Filename C:\stone cold tempin’\Green Day – 21st Century Breakdown (Target Limited Edition) FLAC\Disc 1 – 21st Century Breakdown\12 – ¿Viva La Gloria (Little Girl).wav

Peak level 100.0 %
Extraction speed 7.7 X
Track quality 100.0 %
Test CRC 500C04CD
Copy CRC 500C04CD
Accurately ripped (confidence 27) [5ED3830F] (AR v2)
Copy OK

Track 13

Filename C:\stone cold tempin’\Green Day – 21st Century Breakdown (Target Limited Edition) FLAC\Disc 1 – 21st Century Breakdown\13 – Restless Heart Syndrome.wav

Peak level 100.0 %
Extraction speed 8.1 X
Track quality 100.0 %
Test CRC D9B10854
Copy CRC D9B10854
Accurately ripped (confidence 27) [65E1072F] (AR v2)
Copy OK

Track 14

Filename C:\stone cold tempin’\Green Day – 21st Century Breakdown (Target Limited Edition) FLAC\Disc 1 – 21st Century Breakdown\14 – Horseshoes and Handgrenades.wav

Pre-gap length 0:00:01.85

Peak level 100.0 %
Extraction speed 7.9 X
Track quality 100.0 %
Test CRC E71F7230
Copy CRC E71F7230
Accurately ripped (confidence 27) [84559364] (AR v2)
Copy OK

Track 15

Filename C:\stone cold tempin’\Green Day – 21st Century Breakdown (Target Limited Edition) FLAC\Disc 1 – 21st Century Breakdown\15 – The Static Age.wav

Peak level 100.0 %
Extraction speed 6.7 X
Track quality 99.9 %
Test CRC 09314A21
Copy CRC 09314A21
Accurately ripped (confidence 26) [2E5CE214] (AR v2)
Copy OK

Track 16

Filename C:\stone cold tempin’\Green Day – 21st Century Breakdown (Target Limited Edition) FLAC\Disc 1 – 21st Century Breakdown\16 – 21 Guns.wav

Peak level 100.0 %
Extraction speed 8.9 X
Track quality 100.0 %
Test CRC B5442395
Copy CRC B5442395
Accurately ripped (confidence 26) [D082E97E] (AR v2)
Copy OK

Track 17

Filename C:\stone cold tempin’\Green Day – 21st Century Breakdown (Target Limited Edition) FLAC\Disc 1 – 21st Century Breakdown\17 – American Eulogy (A. Mass Hysteria , B. Modern World).wav

Peak level 100.0 %
Extraction speed 9.0 X
Track quality 100.0 %
Test CRC 9AFC5EF6
Copy CRC 9AFC5EF6
Accurately ripped (confidence 27) [9CAA7338] (AR v2)
Copy OK

Track 18

Filename C:\stone cold tempin’\Green Day – 21st Century Breakdown (Target Limited Edition) FLAC\Disc 1 – 21st Century Breakdown\18 – See the Light.wav

Peak level 100.0 %
Extraction speed 9.3 X
Track quality 100.0 %
Test CRC BF43B066
Copy CRC BF43B066
Accurately ripped (confidence 26) [1CB44FAC] (AR v2)
Copy OK

All tracks accurately ripped

No errors occurred

End of status report

==== Log checksum 42D95810C9E7CB694B02683F52CC06F84C046EB0A45C0AACD236E075D8BD489C ====

Exact Audio Copy V1.0 beta 2 from 29. April 2011

EAC extraction logfile from 15. October 2011, 10:55

Green Day / Live In Japan (Bonus Disc)

Used drive : hp CDDVDW TS-H653R Adapter: 1 ID: 0

Read mode : Secure
Utilize accurate stream : Yes
Defeat audio cache : Yes
Make use of C2 pointers : No

Read offset correction : 6
Overread into Lead-In and Lead-Out : No
Fill up missing offset samples with silence : Yes
Delete leading and trailing silent blocks : No
Null samples used in CRC calculations : Yes
Used interface : Native Win32 interface for Win NT & 2000
Gap handling : Appended to previous track

Used output format : User Defined Encoder
Selected bitrate : 1024 kBit/s
Quality : High
Add ID3 tag : No
Command line compressor : C:\Program Files (x86)\Exact Audio Copy\Flac\flac.exe
Additional command line options : -8 -V -T “ARTIST=%artist%” -T “TITLE=%title%” -T “ALBUM=%albumtitle%” -T “DATE=%year%” -T “TRACKNUMBER=%tracknr%” -T “GENRE=%genre%” -T “PERFORMER=%albuminterpret%” -T “COMPOSER=%composer%” %haslyrics%–tag-from-file=LYRICS

TOC of the extracted CD

Track | Start | Length | Start sector | End sector
———————————————————
1 | 0:00.00 | 4:18.02 | 0 | 19351
2 | 4:18.02 | 9:22.33 | 19352 | 61534
3 | 13:40.35 | 4:33.48 | 61535 | 82057
4 | 18:14.08 | 3:18.45 | 82058 | 96952
5 | 21:32.53 | 2:57.61 | 96953 | 110288
6 | 24:30.39 | 4:41.10 | 110289 | 131373

Track 1

Filename C:\stone cold tempin’\Green Day – 21st Century Breakdown (Target Limited Edition) FLAC\Disc 2 – Live in Japan (Bonus Disc)\01 – American Idiot.wav

Pre-gap length 0:00:02.00

Peak level 100.0 %
Extraction speed 1.8 X
Track quality 100.0 %
Test CRC 50CA89B6
Copy CRC 50CA89B6
Accurately ripped (confidence 9) [985B0AF0] (AR v1)
Copy OK

Track 2

Filename C:\stone cold tempin’\Green Day – 21st Century Breakdown (Target Limited Edition) FLAC\Disc 2 – Live in Japan (Bonus Disc)\02 – Jesus Of Suburbia.wav

Peak level 100.0 %
Extraction speed 2.3 X
Track quality 100.0 %
Test CRC E84633D4
Copy CRC E84633D4
Accurately ripped (confidence 9) [D46EDA96] (AR v1)
Copy OK

Track 3

Filename C:\stone cold tempin’\Green Day – 21st Century Breakdown (Target Limited Edition) FLAC\Disc 2 – Live in Japan (Bonus Disc)\03 – Holiday.wav

Peak level 100.0 %
Extraction speed 2.4 X
Track quality 100.0 %
Test CRC 4DF867C4
Copy CRC 4DF867C4
Accurately ripped (confidence 9) [E394F905] (AR v1)
Copy OK

Track 4

Filename C:\stone cold tempin’\Green Day – 21st Century Breakdown (Target Limited Edition) FLAC\Disc 2 – Live in Japan (Bonus Disc)\04 – Are We The Waiting.wav

Peak level 100.0 %
Extraction speed 2.5 X
Track quality 100.0 %
Test CRC 3132A1E7
Copy CRC 3132A1E7
Accurately ripped (confidence 9) [0CD13706] (AR v1)
Copy OK

Track 5

Filename C:\stone cold tempin’\Green Day – 21st Century Breakdown (Target Limited Edition) FLAC\Disc 2 – Live in Japan (Bonus Disc)\05 – St. Jimmy.wav

Peak level 100.0 %
Extraction speed 2.5 X
Track quality 100.0 %
Test CRC 33797B94
Copy CRC 33797B94
Accurately ripped (confidence 9) [4E3457FC] (AR v1)
Copy OK

Track 6

Filename C:\stone cold tempin’\Green Day – 21st Century Breakdown (Target Limited Edition) FLAC\Disc 2 – Live in Japan (Bonus Disc)\06 – Boulevard Of Broken Dreams.wav

Peak level 100.0 %
Extraction speed 2.8 X
Track quality 100.0 %
Test CRC 8F3A2622
Copy CRC 8F3A2622
Accurately ripped (confidence 9) [F65E78A5] (AR v1)
Copy OK

All tracks accurately ripped

No errors occurred

End of status report

==== Log checksum DE0ED5C057FF612A46D8294E01CA123DBC18DA32686F4DAD48CA0B5C7140FA68 ====

REM GENRE Rock
REM DATE 2009
REM DISCID 0F103B12
REM COMMENT “ExactAudioCopy v1.0b2”
CATALOG 0093624980216
PERFORMER “Green Day”
TITLE “21st Century Breakdown”
FILE “01 – Song of the Century.wav” WAVE
TRACK 01 AUDIO
TITLE “Song of the Century”
PERFORMER “Green Day”
ISRC USRE10900665
INDEX 01 00:00:00
FILE “02 – 21st Century Breakdown.wav” WAVE
TRACK 02 AUDIO
TITLE “21st Century Breakdown”
PERFORMER “Green Day”
ISRC USRE10900666
INDEX 01 00:00:00
FILE “03 – Know Your Enemy.wav” WAVE
TRACK 03 AUDIO
TITLE “Know Your Enemy”
PERFORMER “Green Day”
ISRC USRE10900522
INDEX 01 00:00:00
FILE “04 – ¡Viva La Gloria!.wav” WAVE
TRACK 04 AUDIO
TITLE “¡Viva La Gloria!”
PERFORMER “Green Day”
ISRC USRE10900667
INDEX 01 00:00:00
FILE “05 – Before the Lobotomy.wav” WAVE
TRACK 05 AUDIO
TITLE “Before the Lobotomy”
PERFORMER “Green Day”
ISRC USRE10900668
INDEX 01 00:00:00
FILE “06 – Christian’s Inferno.wav” WAVE
TRACK 06 AUDIO
TITLE “Christian’s Inferno”
PERFORMER “Green Day”
ISRC USRE10900669
INDEX 01 00:00:00
FILE “07 – Last Night on Earth.wav” WAVE
TRACK 07 AUDIO
TITLE “Last Night on Earth”
PERFORMER “Green Day”
ISRC USRE10900670
INDEX 01 00:00:00
FILE “08 – East Jesus Nowhere.wav” WAVE
TRACK 08 AUDIO
TITLE “East Jesus Nowhere”
PERFORMER “Green Day”
ISRC USRE10900671
INDEX 01 00:00:00
FILE “09 – Peacemaker.wav” WAVE
TRACK 09 AUDIO
TITLE “Peacemaker”
PERFORMER “Green Day”
ISRC USRE10900672
INDEX 01 00:00:00
FILE “10 – Last of the American Girls.wav” WAVE
TRACK 10 AUDIO
TITLE “Last of the American Girls”
PERFORMER “Green Day”
ISRC USRE10900673
INDEX 01 00:00:00
FILE “11 – Murder City.wav” WAVE
TRACK 11 AUDIO
TITLE “Murder City”
PERFORMER “Green Day”
ISRC USRE10900674
INDEX 01 00:00:00
FILE “12 – ¿Viva La Gloria (Little Girl).wav” WAVE
TRACK 12 AUDIO
TITLE “¿Viva La Gloria? (Little Girl)”
PERFORMER “Green Day”
ISRC USRE10900675
INDEX 01 00:00:00
FILE “13 – Restless Heart Syndrome.wav” WAVE
TRACK 13 AUDIO
TITLE “Restless Heart Syndrome”
PERFORMER “Green Day”
ISRC USRE10900676
INDEX 01 00:00:00
TRACK 14 AUDIO
TITLE “Horseshoes and Handgrenades”
PERFORMER “Green Day”
ISRC USRE10900677
INDEX 00 04:19:48
FILE “14 – Horseshoes and Handgrenades.wav” WAVE
INDEX 01 00:00:00
FILE “15 – The Static Age.wav” WAVE
TRACK 15 AUDIO
TITLE “The Static Age”
PERFORMER “Green Day”
ISRC USRE10900678
INDEX 01 00:00:00
FILE “16 – 21 Guns.wav” WAVE
TRACK 16 AUDIO
TITLE “21 Guns”
PERFORMER “Green Day”
ISRC USRE10900679
INDEX 01 00:00:00
FILE “17 – American Eulogy (A. Mass Hysteria , B. Modern World).wav” WAVE
TRACK 17 AUDIO
TITLE “American Eulogy (A. Mass Hysteria / B. Modern World)”
PERFORMER “Green Day”
ISRC USRE10900680
INDEX 01 00:00:00
FILE “18 – See the Light.wav” WAVE
TRACK 18 AUDIO
TITLE “See the Light”
PERFORMER “Green Day”
ISRC USRE10900680
INDEX 01 00:00:00

REM GENRE Rock
REM DATE 2009
REM DISCID 4406D706
REM COMMENT “ExactAudioCopy v1.0b2”
CATALOG 0093624975731
PERFORMER “Green Day”
TITLE “Live In Japan (Bonus Disc)”
FILE “01 – American Idiot.wav” WAVE
TRACK 01 AUDIO
TITLE “American Idiot”
PERFORMER “Green Day”
ISRC USRE10500513
INDEX 01 00:00:00
FILE “02 – Jesus Of Suburbia.wav” WAVE
TRACK 02 AUDIO
TITLE “Jesus Of Suburbia”
PERFORMER “Green Day”
ISRC USRE10500514
INDEX 01 00:00:00
FILE “03 – Holiday.wav” WAVE
TRACK 03 AUDIO
TITLE “Holiday”
PERFORMER “Green Day”
ISRC USRE10500515
INDEX 01 00:00:00
FILE “04 – Are We The Waiting.wav” WAVE
TRACK 04 AUDIO
TITLE “Are We The Waiting”
PERFORMER “Green Day”
ISRC USRE10500516
INDEX 01 00:00:00
FILE “05 – St. Jimmy.wav” WAVE
TRACK 05 AUDIO
TITLE “St. Jimmy”
PERFORMER “Green Day”
ISRC USRE10500517
INDEX 01 00:00:00
FILE “06 – Boulevard Of Broken Dreams.wav” WAVE
TRACK 06 AUDIO
TITLE “Boulevard Of Broken Dreams”
PERFORMER “Green Day”
ISRC USRE10500518
INDEX 01 00:00:00


Leave a Reply

Your email address will not be published. Required fields are marked *

This site uses Akismet to reduce spam. Learn how your comment data is processed.