Grateful Dead – Workingman’s Dead (Remastered)




Artist: Grateful Dead
Year: 1970/2001
Genre: Rock
Notes: Discogs
Add. Notes: Remastered
Cover incl.: Yes
Encoder: FLAC
Bitrate: ~800 kBit/s (44.1 kHz/16 Bit/s)
Log & Cue incl.: Yes
Size: 544 MB
Password: “slam” (without ” “)


All Downloads/Hosters are compatible

Download 1
KatFile.com
Turbobit.net
Rapidgator.net
Download 2
KatFile.com
Turbobit.net
Rapidgator.net

Tracklist:

1 - Uncle John's Band - 4:42
2 - High Time - 5:12
3 - Dire Wolf - 3:11
4 - New Speedway Boogie - 4:04
5 - Cumberland Blues - 3:14
6 - Black Peter - 5:41
7 - Easy Wind - 4:57
8 - Casey Jones - 4:24
Workingman's Dead: Bonus Material
9 - New Speedway Boogie (Alternate 
Mix) - 4:06
10 - Dire Wolf (Live) - 2:32
11 - Black Peter (Live) - 9:07
12 - Easy Wind (Live) - 8:10
13 - Cumberland Blues (Live) - 4:52
14 - Mason's Children (Live) - 6:33
15 - Uncle John's Band (Live) - 6:51

EAC-Log, CUE-Sheed & NFO:

Click to open spoiler
REM GENRE “Rock / Folk Rock / Blues Rock / Psychedelic Rock”
REM DATE 1970
REM DISCID D012B810
REM COMMENT “ExactAudioCopy v1.1”
PERFORMER “Grateful Dead”
TITLE “Workingman’s Dead HDCD”
FILE “Grateful Dead – Workingman’s Dead HDCD.flac” WAVE
TRACK 01 AUDIO
TITLE “Uncle John’s Band”
PERFORMER “Grateful Dead”
INDEX 00 00:00:00
INDEX 01 00:00:33
TRACK 02 AUDIO
TITLE “High Time”
PERFORMER “Grateful Dead”
INDEX 00 04:43:23
INDEX 01 04:45:58
TRACK 03 AUDIO
TITLE “Dire Wolf”
PERFORMER “Grateful Dead”
INDEX 00 09:57:68
INDEX 01 10:00:28
TRACK 04 AUDIO
TITLE “New Speedway Boogie”
PERFORMER “Grateful Dead”
INDEX 00 13:12:13
INDEX 01 13:14:68
TRACK 05 AUDIO
TITLE “Cumberland Blues”
PERFORMER “Grateful Dead”
INDEX 00 17:19:20
INDEX 01 17:21:58
TRACK 06 AUDIO
TITLE “Black Peter”
PERFORMER “Grateful Dead”
INDEX 00 20:35:60
INDEX 01 20:38:25
TRACK 07 AUDIO
TITLE “Easy Wind”
PERFORMER “Grateful Dead”
INDEX 00 26:19:53
INDEX 01 26:22:05
TRACK 08 AUDIO
TITLE “Casey Jones”
PERFORMER “Grateful Dead”
INDEX 00 31:19:20
INDEX 01 31:20:50
TRACK 09 AUDIO
TITLE “New Speedway Boogie (Alternate Mix) / Bonus”
PERFORMER “Grateful Dead”
INDEX 00 35:44:58
INDEX 01 35:59:28
TRACK 10 AUDIO
TITLE “Dire Wolf (Live) / Bonus”
PERFORMER “Grateful Dead”
INDEX 00 40:05:50
INDEX 01 40:09:43
TRACK 11 AUDIO
TITLE “Black Peter (Live) / Bonus”
PERFORMER “Grateful Dead”
INDEX 01 42:41:18
TRACK 12 AUDIO
TITLE “Easy Wind (Live) / Bonus”
PERFORMER “Grateful Dead”
INDEX 01 51:48:43
TRACK 13 AUDIO
TITLE “Cumberland Blues (Live) / Bonus”
PERFORMER “Grateful Dead”
INDEX 01 59:58:18
TRACK 14 AUDIO
TITLE “Mason’s Children (Live) / Bonus”
PERFORMER “Grateful Dead”
INDEX 01 64:50:20
TRACK 15 AUDIO
TITLE “Uncle John’s Band (Live) / Bonus”
PERFORMER “Grateful Dead”
INDEX 01 71:22:65
TRACK 16 AUDIO
TITLE “30 Sec Radio Spot / Hidden Track”
PERFORMER “Grateful Dead”
INDEX 00 78:14:05
INDEX 01 79:20:30

Exact Audio Copy V1.1 from 23. June 2015

EAC extraction logfile from 1. August 2015, 18:07

Grateful Dead / Workingman’s Dead HDCD

Used drive : PLEXTOR BD-R PX-B950SA Adapter: 1 ID: 1

Read mode : Secure
Utilize accurate stream : Yes
Defeat audio cache : Yes
Make use of C2 pointers : No

Read offset correction : 6
Overread into Lead-In and Lead-Out : No
Fill up missing offset samples with silence : Yes
Delete leading and trailing silent blocks : No
Null samples used in CRC calculations : Yes
Used interface : Native Win32 interface for Win NT & 2000

Used output format : Internal WAV Routines
Sample format : 44.100 Hz; 16 Bit; Stereo

TOC of the extracted CD

Track | Start | Length | Start sector | End sector
———————————————————
1 | 0:00.33 | 4:45.25 | 33 | 21432
2 | 4:45.58 | 5:14.45 | 21433 | 45027
3 | 10:00.28 | 3:14.40 | 45028 | 59617
4 | 13:14.68 | 4:06.65 | 59618 | 78132
5 | 17:21.58 | 3:16.42 | 78133 | 92874
6 | 20:38.25 | 5:43.55 | 92875 | 118654
7 | 26:22.05 | 4:58.45 | 118655 | 141049
8 | 31:20.50 | 4:38.53 | 141050 | 161952
9 | 35:59.28 | 4:10.15 | 161953 | 180717
10 | 40:09.43 | 2:31.50 | 180718 | 192092
11 | 42:41.18 | 9:07.25 | 192093 | 233142
12 | 51:48.43 | 8:09.50 | 233143 | 269867
13 | 59:58.18 | 4:52.02 | 269868 | 291769
14 | 64:50.20 | 6:32.45 | 291770 | 321214
15 | 71:22.65 | 7:57.40 | 321215 | 357029
16 | 79:20.30 | 0:31.70 | 357030 | 359424

Range status and errors

Selected range

Filename C:\Users\Meijin\Desktop\Lossless Galaxy ALLexxess\Grateful Dead\2001 The Golden Road 1965-1973 (12HDCD Box Set Rhino Records)\1970 Workingman’s Dead\Grateful Dead – Workingman’s Dead HDCD.wav

Peak level 98.8 %
Extraction speed 8.7 X
Range quality 100.0 %
Test CRC 1A0E716C
Copy CRC 1A0E716C
Copy OK

No errors occurred

AccurateRip summary

Track 1 accurately ripped (confidence 100) [15B2FE0D] (AR v2)
Track 2 accurately ripped (confidence 100) [EDBC591F] (AR v2)
Track 3 accurately ripped (confidence 101) [A7854FE2] (AR v2)
Track 4 accurately ripped (confidence 101) [1169C778] (AR v2)
Track 5 accurately ripped (confidence 100) [EE42287C] (AR v2)
Track 6 accurately ripped (confidence 98) [05750485] (AR v2)
Track 7 accurately ripped (confidence 100) [81F6263D] (AR v2)
Track 8 accurately ripped (confidence 99) [0B49F17C] (AR v2)
Track 9 accurately ripped (confidence 97) [584C5B85] (AR v2)
Track 10 accurately ripped (confidence 96) [A0C8720F] (AR v2)
Track 11 accurately ripped (confidence 93) [3B4F5986] (AR v2)
Track 12 accurately ripped (confidence 93) [3A27F08E] (AR v2)
Track 13 accurately ripped (confidence 90) [420EBF98] (AR v2)
Track 14 accurately ripped (confidence 89) [506DBF23] (AR v2)
Track 15 accurately ripped (confidence 86) [C1065FA6] (AR v2)
Track 16 accurately ripped (confidence 90) [B5FD53A3] (AR v2)

All tracks accurately ripped

End of status report

—- CUETools DB Plugin V2.1.6

[CTDB TOCID: ZYeJMtToGD_Nk5_II4nd8vdANVE-] found
Submit result: ZYeJMtToGD_Nk5_II4nd8vdANVE- has been confirmed
Track | CTDB Status
1 | (23/44) Accurately ripped
2 | (24/44) Accurately ripped
3 | (23/44) Accurately ripped
4 | (24/44) Accurately ripped
5 | (24/44) Accurately ripped
6 | (24/44) Accurately ripped
7 | (24/44) Accurately ripped
8 | (23/44) Accurately ripped
9 | (24/44) Accurately ripped
10 | (24/44) Accurately ripped
11 | (24/44) Accurately ripped
12 | (24/44) Accurately ripped
13 | (24/44) Accurately ripped
14 | (24/44) Accurately ripped
15 | (23/44) Accurately ripped
16 | (23/44) Accurately ripped

==== Log checksum 70126EFDC2A1938BCA57306A2A372550901C44920ECFEAD8676A6D1E3635789E ====


Leave a Reply

Your email address will not be published. Required fields are marked *

This site uses Akismet to reduce spam. Learn how your comment data is processed.