Grateful Dead – Wake Of The Flood (Remastered)




No Cover available

Artist: Grateful Dead
Year: 1973/2004
Genre: Rock
Notes: Discogs
Add. Notes: Remastered
Watch Songs on: YouTube
Cover incl.: Yes
Encoder: FLAC
Bitrate: ~800 kBit/s (44.1 kHz/16 Bit/s)
Log & Cue incl.: Yes/Yes
Size: 477,73 MB
Password: “slam” (without ” “)


All Downloads/Hosters are compatible

Download 1
KatFile.com
Turbobit.net
FileFactory.com
Rapidgator.net
Download 2
KatFile.com
Turbobit.net
FileFactory.com
Rapidgator.net

Tracklist:

1 Mississippi Half-Step Uptown Toodeloo 5:42
2 Let Me Sing Your Blues Away 3:15
3 Row Jimmy 7:11
4 Stella Blue 6:22
5 Here Comes Sunshine 4:37
6 Eyes Of The World 5:16
7 Weather Report Suite: Prelude/Part I/Part II (Let It 
Grow) 12:42 

EAC-Log, CUE-Sheed & NFO:

Click to open spoiler
Exact Audio Copy V1.1 from 23. June 2015

EAC extraction logfile from 1. August 2015, 11:30

Grateful Dead / Wake Of The Flood HDCD

Used drive : PLEXTOR BD-R PX-B950SA Adapter: 1 ID: 1

Read mode : Secure
Utilize accurate stream : Yes
Defeat audio cache : Yes
Make use of C2 pointers : No

Read offset correction : 6
Overread into Lead-In and Lead-Out : No
Fill up missing offset samples with silence : Yes
Delete leading and trailing silent blocks : No
Null samples used in CRC calculations : Yes
Used interface : Native Win32 interface for Win NT & 2000

Used output format : Internal WAV Routines
Sample format : 44.100 Hz; 16 Bit; Stereo

TOC of the extracted CD

Track | Start | Length | Start sector | End sector
———————————————————
1 | 0:00.00 | 5:45.03 | 0 | 25877
2 | 5:45.03 | 3:17.68 | 25878 | 40720
3 | 9:02.71 | 7:14.43 | 40721 | 73313
4 | 16:17.39 | 6:26.23 | 73314 | 102286
5 | 22:43.62 | 4:40.43 | 102287 | 123329
6 | 27:24.30 | 5:19.68 | 123330 | 147322
7 | 32:44.23 | 12:52.22 | 147323 | 205244
8 | 45:36.45 | 17:05.49 | 205245 | 282168
9 | 62:42.19 | 12:39.72 | 282169 | 339165
10 | 75:22.16 | 4:02.14 | 339166 | 357329

Range status and errors

Selected range

Filename C:\Users\Meijin\Desktop\Lossless Galaxy ALLexxess\Grateful Dead\2004 Beyond Description 1973-1989 (12HDCD Box Set Rhino Records)\1973 Wake Of The Flood\Grateful Dead – Wake Of The Flood HDCD.wav

Peak level 98.8 %
Extraction speed 8.7 X
Range quality 100.0 %
Test CRC 03600AD3
Copy CRC 03600AD3
Copy OK

No errors occurred

AccurateRip summary

Track 1 accurately ripped (confidence 67) [DAE7B5EB] (AR v2)
Track 2 accurately ripped (confidence 65) [1F221416] (AR v2)
Track 3 accurately ripped (confidence 67) [A3E3DB96] (AR v2)
Track 4 accurately ripped (confidence 67) [4C693F21] (AR v2)
Track 5 accurately ripped (confidence 69) [B4D497A4] (AR v2)
Track 6 accurately ripped (confidence 68) [6722ED96] (AR v2)
Track 7 accurately ripped (confidence 67) [1F719036] (AR v2)
Track 8 accurately ripped (confidence 69) [82C0EAFD] (AR v2)
Track 9 accurately ripped (confidence 67) [F3586EDB] (AR v2)
Track 10 accurately ripped (confidence 64) [A192A9B9] (AR v2)

All tracks accurately ripped

End of status report

—- CUETools DB Plugin V2.1.6

[CTDB TOCID: xLrpdZnYcPXNl1qFWLYKAMWmi_w-] found
Submit result: xLrpdZnYcPXNl1qFWLYKAMWmi_w- has been confirmed
Track | CTDB Status
1 | (40/41) Accurately ripped
2 | (41/41) Accurately ripped
3 | (39/41) Accurately ripped
4 | (40/41) Accurately ripped
5 | (40/41) Accurately ripped
6 | (38/41) Accurately ripped
7 | (38/41) Accurately ripped
8 | (40/41) Accurately ripped
9 | (40/41) Accurately ripped
10 | (40/41) Accurately ripped

==== Log checksum E16FEB9940EE797E65B464B722CA0D1DAE16E669646E59CF0A59D9AC7B038C2C ====

REM GENRE “Rock / Folk Rock / Blues Rock / Psychedelic Rock”
REM DATE 1973
REM DISCID A3129C0A
REM COMMENT “ExactAudioCopy v1.1”
PERFORMER “Grateful Dead”
TITLE “Wake Of The Flood HDCD”
FILE “Grateful Dead – Wake Of The Flood HDCD.flac” WAVE
TRACK 01 AUDIO
TITLE “Mississippi Half-Step Uptown Toodeloo”
PERFORMER “Grateful Dead”
INDEX 01 00:00:00
TRACK 02 AUDIO
TITLE “Let Me Sing Your Blues Away”
PERFORMER “Grateful Dead”
INDEX 00 05:42:31
INDEX 01 05:45:03
TRACK 03 AUDIO
TITLE “Row Jimmy”
PERFORMER “Grateful Dead”
INDEX 00 08:59:68
INDEX 01 09:02:71
TRACK 04 AUDIO
TITLE “Stella Blue”
PERFORMER “Grateful Dead”
INDEX 00 16:14:74
INDEX 01 16:17:39
TRACK 05 AUDIO
TITLE “Here Comes Sunshine”
PERFORMER “Grateful Dead”
INDEX 00 22:40:70
INDEX 01 22:43:62
TRACK 06 AUDIO
TITLE “Eyes Of The World”
PERFORMER “Grateful Dead”
INDEX 00 27:21:48
INDEX 01 27:24:30
TRACK 07 AUDIO
TITLE “Weather Report Suite: Prelude / Part I / Part II (Let It Grow) / Bonus”
PERFORMER “Grateful Dead”
INDEX 00 32:40:42
INDEX 01 32:44:23
TRACK 08 AUDIO
TITLE “Eyes Of The World (Live) / Bonus”
PERFORMER “Grateful Dead”
INDEX 00 45:26:38
INDEX 01 45:36:45
TRACK 09 AUDIO
TITLE “Weather Report Suite (Studio Acoustic Demo): Prelude / Part 1 / Part II (Let …”
PERFORMER “Grateful Dead”
INDEX 00 62:38:70
INDEX 01 62:42:19
TRACK 10 AUDIO
TITLE “China Doll (Studio Outtake) / Bonus”
PERFORMER “Grateful Dead”
INDEX 00 75:18:71
INDEX 01 75:22:16


Leave a Reply

Your email address will not be published. Required fields are marked *

This site uses Akismet to reduce spam. Learn how your comment data is processed.