Grateful Dead – The Grateful Dead (Remastered)




Artist: Grateful Dead
Year: 1967/2003
Genre: Rock
Notes: Discogs
Add. Notes: Remastered
Cover incl.: Yes
Encoder: FLAC
Bitrate: ~800 kBit/s (44.1 kHz/16 Bit/s)
Log & Cue incl.: Yes
Size: 550 MB
Password: “slam” (without ” “)


All Downloads/Hosters are compatible

Download 1
KatFile.com
Turbobit.net
FileFactory.com
Rapidgator.net
Download 2
KatFile.com
Turbobit.net
FileFactory.com
Rapidgator.net

Tracklist:

1 - The Golden Road (To Unlimited 
Devotion) - 2:09
2 - Beat It On Down The Line - 2:29
3 - Good Morning Little Schoolgirl 
(Full-Length Version) - 
6:32
4 - Cold Rain And Snow - 2:26
5 - Sitting On Top Of The World (Full-
Length Version) - 
2:43
6 - Cream Puff War (Full-Length 
Version) - 3:18
7 - Morning Dew (Full-Length 
Version) - 5:16
8 - New, New Minglewood Blues (Full-
Length Version) - 
2:40
9 - Viola Lee Blues - 10:09

Bonus Material
10 - Alice D. Millionaire - 2:22
11 - Overseas Stomp (The Lindy) - 
2:24
12 - Tastebud - 4:18
13 - Death Don't Have No Mercy - 
5:20
14 - Viola Lee Blues (Edited Version) - 
3:00
15 - Viola Lee Blues (Live) - 23:13

EAC-Log, CUE-Sheed & NFO:

Click to open spoiler
Exact Audio Copy V1.1 from 23. June 2015

EAC extraction logfile from 2. August 2015, 9:44

Grateful Dead / The Grateful Dead HDCD

Used drive : PLEXTOR BD-R PX-B950SA Adapter: 1 ID: 1

Read mode : Secure
Utilize accurate stream : Yes
Defeat audio cache : Yes
Make use of C2 pointers : No

Read offset correction : 6
Overread into Lead-In and Lead-Out : No
Fill up missing offset samples with silence : Yes
Delete leading and trailing silent blocks : No
Null samples used in CRC calculations : Yes
Used interface : Native Win32 interface for Win NT & 2000

Used output format : Internal WAV Routines
Sample format : 44.100 Hz; 16 Bit; Stereo

TOC of the extracted CD

Track | Start | Length | Start sector | End sector
———————————————————
1 | 0:00.32 | 2:11.53 | 32 | 9909
2 | 2:12.10 | 2:30.55 | 9910 | 21214
3 | 4:42.65 | 6:35.12 | 21215 | 50851
4 | 11:18.02 | 2:29.28 | 50852 | 62054
5 | 13:47.30 | 2:46.62 | 62055 | 74566
6 | 16:34.17 | 3:20.60 | 74567 | 89626
7 | 19:55.02 | 5:19.55 | 89627 | 113606
8 | 25:14.57 | 2:44.03 | 113607 | 125909
9 | 27:58.60 | 10:23.45 | 125910 | 172679
10 | 38:22.30 | 2:24.57 | 172680 | 183536
11 | 40:47.12 | 2:27.10 | 183537 | 194571
12 | 43:14.22 | 4:21.38 | 194572 | 214184
13 | 47:35.60 | 5:23.57 | 214185 | 238466
14 | 52:59.42 | 3:05.08 | 238467 | 252349
15 | 56:04.50 | 23:13.60 | 252350 | 356884

Range status and errors

Selected range

Filename C:\Users\Meijin\Desktop\Lossless Galaxy ALLexxess\Grateful Dead\2001 The Golden Road 1965-1973 (12HDCD Box Set Rhino Records)\1967 The Grateful Dead\Grateful Dead – The Grateful Dead HDCD.wav

Peak level 98.8 %
Extraction speed 8.6 X
Range quality 100.0 %
Test CRC 87B48D0D
Copy CRC 87B48D0D
Copy OK

No errors occurred

AccurateRip summary

Track 1 accurately ripped (confidence 105) [1119F4FC] (AR v2)
Track 2 accurately ripped (confidence 106) [465CF205] (AR v2)
Track 3 accurately ripped (confidence 108) [10EB2464] (AR v2)
Track 4 accurately ripped (confidence 108) [4398252E] (AR v2)
Track 5 accurately ripped (confidence 108) [235EDAD3] (AR v2)
Track 6 accurately ripped (confidence 108) [3CF2AF70] (AR v2)
Track 7 accurately ripped (confidence 108) [2C76019A] (AR v2)
Track 8 accurately ripped (confidence 108) [1EABDFF2] (AR v2)
Track 9 accurately ripped (confidence 108) [1BD0E392] (AR v2)
Track 10 accurately ripped (confidence 108) [07A4B7BA] (AR v2)
Track 11 accurately ripped (confidence 108) [2C605EF9] (AR v2)
Track 12 accurately ripped (confidence 108) [CB56196B] (AR v2)
Track 13 accurately ripped (confidence 107) [A292D807] (AR v2)
Track 14 accurately ripped (confidence 106) [8C3BDCD8] (AR v2)
Track 15 accurately ripped (confidence 98) [E65E24A6] (AR v2)

All tracks accurately ripped

End of status report

—- CUETools DB Plugin V2.1.6

[CTDB TOCID: f.1wouSqBxV9t1v4GgNZIV.2vOA-] found
Submit result: f.1wouSqBxV9t1v4GgNZIV.2vOA- has been confirmed
Track | CTDB Status
1 | (31/32) Accurately ripped
2 | (31/32) Accurately ripped
3 | (31/32) Accurately ripped
4 | (31/32) Accurately ripped
5 | (31/32) Accurately ripped
6 | (32/32) Accurately ripped
7 | (31/32) Accurately ripped
8 | (31/32) Accurately ripped
9 | (31/32) Accurately ripped
10 | (31/32) Accurately ripped
11 | (31/32) Accurately ripped
12 | (31/32) Accurately ripped
13 | (31/32) Accurately ripped
14 | (31/32) Accurately ripped
15 | (28/32) Accurately ripped

==== Log checksum E9FF9EFD89EE8D109461BE5FDFBF77BC53B745EEC1AAFC0CB520F9E1B392CF2C ====

REM GENRE “Rock / Folk Rock / Blues Rock / Psychedelic Rock”
REM DATE 1967
REM DISCID E612960F
REM COMMENT “ExactAudioCopy v1.1”
PERFORMER “Grateful Dead”
TITLE “The Grateful Dead HDCD”
FILE “Grateful Dead – The Grateful Dead HDCD.flac” WAVE
TRACK 01 AUDIO
TITLE “The Golden Road (To Unlimited Devotion)”
PERFORMER “Grateful Dead”
INDEX 00 00:00:00
INDEX 01 00:00:32
TRACK 02 AUDIO
TITLE “Beat It On Down The Line”
PERFORMER “Grateful Dead”
INDEX 00 02:09:72
INDEX 01 02:12:10
TRACK 03 AUDIO
TITLE “Good Morning Little School Girl (Full-Length Version)”
PERFORMER “Grateful Dead”
INDEX 00 04:41:22
INDEX 01 04:42:65
TRACK 04 AUDIO
TITLE “Cold Rain And Snow”
PERFORMER “Grateful Dead”
INDEX 00 11:15:22
INDEX 01 11:18:02
TRACK 05 AUDIO
TITLE “Sitting On Top Of The World (Full-Length Version)”
PERFORMER “Grateful Dead”
INDEX 00 13:44:55
INDEX 01 13:47:30
TRACK 06 AUDIO
TITLE “Cream Puff War (Full-Length Version)”
PERFORMER “Grateful Dead”
INDEX 00 16:30:37
INDEX 01 16:34:17
TRACK 07 AUDIO
TITLE “Morning Dew (Full-Length Version)”
PERFORMER “Grateful Dead”
INDEX 00 19:52:22
INDEX 01 19:55:02
TRACK 08 AUDIO
TITLE “New, New Minglewood Blues (Full-Length Version)”
PERFORMER “Grateful Dead”
INDEX 00 25:11:60
INDEX 01 25:14:57
TRACK 09 AUDIO
TITLE “Viola Lee Blues”
PERFORMER “Grateful Dead”
INDEX 00 27:55:35
INDEX 01 27:58:60
TRACK 10 AUDIO
TITLE “Alice D. Millionaire / Bonus”
PERFORMER “Grateful Dead”
INDEX 00 38:07:60
INDEX 01 38:22:30
TRACK 11 AUDIO
TITLE “Overseas Stomp (The Lindy) / Bonus”
PERFORMER “Grateful Dead”
INDEX 00 40:44:50
INDEX 01 40:47:12
TRACK 12 AUDIO
TITLE “Tastebud / Bonus”
PERFORMER “Grateful Dead”
INDEX 00 43:12:00
INDEX 01 43:14:22
TRACK 13 AUDIO
TITLE “Death Don’t Have No Mercy / Bonus”
PERFORMER “Grateful Dead”
INDEX 00 47:33:10
INDEX 01 47:35:60
TRACK 14 AUDIO
TITLE “Viola Lee Blues (Edited Version) / Bonus”
PERFORMER “Grateful Dead”
INDEX 00 52:56:35
INDEX 01 52:59:42
TRACK 15 AUDIO
TITLE “Viola Lee Blues (Live) / Bonus”
PERFORMER “Grateful Dead”
INDEX 00 56:00:15
INDEX 01 56:04:50


Leave a Reply

Your email address will not be published. Required fields are marked *

This site uses Akismet to reduce spam. Learn how your comment data is processed.