Grateful Dead – Terrapin Station (Remastered)




No Cover available

Artist: Grateful Dead
Year: 1977/2004
Genre: Rock
Notes: Discogs
Add. Notes: Remastered
Watch Songs on: YouTube
Cover incl.: Yes
Encoder: FLAC
Bitrate: ~900 kBit/s (44.1 kHz/16 Bit/s)
Log & Cue incl.: Yes/Yes
Size: 515,2 MB
Password: “slam” (without ” “)


All Downloads/Hosters are compatible

Download 1
KatFile.com
Turbobit.net
FileFactory.com
Rapidgator.net
Download 2
KatFile.com
Turbobit.net
FileFactory.com
Rapidgator.net

Tracklist:

1 Estimated Prophet 5:35
2 Dancin' In The Streets 3:30
3 Passenger 2:48
4 Samson & Delilah 3:30
5 Sunrise 4:05
6 Terrapin Station Part 1 16:10

Bonus Material
7 Peggy-O (Instrumental Studio Outtake) 4:42
8 The Ascent (Instrumental Studio Outtake) 1:58
9 Catfish John (Studio Outtake) 4:40
10 Equinox (Studio Outtake) 5:14
11 Fire On The Mountain (Studio Outtake) 6:25
12 Dancin' In The Streets (Live) 16:17

EAC-Log, CUE-Sheed & NFO:

Click to open spoiler
Exact Audio Copy V1.1 from 23. June 2015

EAC extraction logfile from 1. August 2015, 10:04

Grateful Dead / Terrapin Station HDCD

Used drive : PLEXTOR BD-R PX-B950SA Adapter: 1 ID: 1

Read mode : Secure
Utilize accurate stream : Yes
Defeat audio cache : Yes
Make use of C2 pointers : No

Read offset correction : 6
Overread into Lead-In and Lead-Out : No
Fill up missing offset samples with silence : Yes
Delete leading and trailing silent blocks : No
Null samples used in CRC calculations : Yes
Used interface : Native Win32 interface for Win NT & 2000

Used output format : Internal WAV Routines
Sample format : 44.100 Hz; 16 Bit; Stereo

TOC of the extracted CD

Track | Start | Length | Start sector | End sector
———————————————————
1 | 0:00.00 | 5:37.17 | 0 | 25291
2 | 5:37.17 | 3:18.54 | 25292 | 40195
3 | 8:55.71 | 2:48.03 | 40196 | 52798
4 | 11:43.74 | 3:29.18 | 52799 | 68491
5 | 15:13.17 | 4:08.13 | 68492 | 87104
6 | 19:21.30 | 16:29.49 | 87105 | 161328
7 | 35:51.04 | 4:41.51 | 161329 | 182454
8 | 40:32.55 | 1:59.14 | 182455 | 191393
9 | 42:31.69 | 4:43.54 | 191394 | 212672
10 | 47:15.48 | 5:15.34 | 212673 | 236331
11 | 52:31.07 | 6:26.12 | 236332 | 265293
12 | 58:57.19 | 16:17.42 | 265294 | 338610

Range status and errors

Selected range

Filename C:\Users\Meijin\Desktop\Lossless Galaxy ALLexxess\Grateful Dead\2004 Beyond Description 1973-1989 (12HDCD Box Set Rhino Records)\1977 Terrapin Station\Grateful Dead – Terrapin Station HDCD.wav

Peak level 98.8 %
Extraction speed 8.5 X
Range quality 100.0 %
Test CRC 2027F308
Copy CRC 2027F308
Copy OK

No errors occurred

AccurateRip summary

Track 1 accurately ripped (confidence 46) [E79EA809] (AR v2)
Track 2 accurately ripped (confidence 47) [F60F2B17] (AR v2)
Track 3 accurately ripped (confidence 48) [BA5BBC94] (AR v2)
Track 4 accurately ripped (confidence 48) [0FF5C9EB] (AR v2)
Track 5 accurately ripped (confidence 48) [B22CD699] (AR v2)
Track 6 accurately ripped (confidence 48) [ACF5137B] (AR v2)
Track 7 accurately ripped (confidence 48) [900A72AC] (AR v2)
Track 8 accurately ripped (confidence 47) [9DCC01FF] (AR v2)
Track 9 accurately ripped (confidence 48) [B2C01259] (AR v2)
Track 10 accurately ripped (confidence 48) [0233CB9C] (AR v2)
Track 11 accurately ripped (confidence 47) [B8F84E6F] (AR v2)
Track 12 accurately ripped (confidence 45) [F00164A2] (AR v2)

All tracks accurately ripped

End of status report

—- CUETools DB Plugin V2.1.6

[CTDB TOCID: JxzhoKUv.UMeYZVt1jXj441xw6I-] found
Submit result: JxzhoKUv.UMeYZVt1jXj441xw6I- has been confirmed
Track | CTDB Status
1 | (36/36) Accurately ripped
2 | (36/36) Accurately ripped
3 | (36/36) Accurately ripped
4 | (36/36) Accurately ripped
5 | (36/36) Accurately ripped
6 | (35/36) Accurately ripped
7 | (35/36) Accurately ripped
8 | (36/36) Accurately ripped
9 | (36/36) Accurately ripped
10 | (36/36) Accurately ripped
11 | (36/36) Accurately ripped
12 | (33/36) Accurately ripped

==== Log checksum F8CFD0F3D85235985BE36B941C45B4B86355C1B3F19693FA2F7C93F3EA1FE8AD ====

REM GENRE “Rock / Folk Rock / Blues Rock / Psychedelic Rock”
REM DATE 1977
REM DISCID A111A20C
REM COMMENT “ExactAudioCopy v1.1”
PERFORMER “Grateful Dead”
TITLE “Terrapin Station HDCD”
FILE “Grateful Dead – Terrapin Station HDCD.flac” WAVE
TRACK 01 AUDIO
TITLE “Estimated Prophet”
PERFORMER “Grateful Dead”
INDEX 01 00:00:00
TRACK 02 AUDIO
TITLE “Dancin’ In The Streets”
PERFORMER “Grateful Dead”
INDEX 01 05:37:17
TRACK 03 AUDIO
TITLE “Passenger”
PERFORMER “Grateful Dead”
INDEX 01 08:55:71
TRACK 04 AUDIO
TITLE “Samson & Delilah”
PERFORMER “Grateful Dead”
INDEX 01 11:43:74
TRACK 05 AUDIO
TITLE “Sunrise”
PERFORMER “Grateful Dead”
INDEX 00 15:11:19
INDEX 01 15:13:17
TRACK 06 AUDIO
TITLE “Terrapin Station Pt. I”
PERFORMER “Grateful Dead”
INDEX 00 19:20:25
INDEX 01 19:21:30
INDEX 02 23:31:42
INDEX 03 25:57:42
INDEX 04 28:09:52
INDEX 05 28:40:52
INDEX 06 30:25:74
INDEX 07 33:20:28
TRACK 07 AUDIO
TITLE “Peggy-O (Instrumental Studio Outtake) / Bonus”
PERFORMER “Grateful Dead”
INDEX 00 35:41:39
INDEX 01 35:51:04
TRACK 08 AUDIO
TITLE “The Ascent (Instrumental Studio Outtake) / Bonus”
PERFORMER “Grateful Dead”
INDEX 01 40:32:55
TRACK 09 AUDIO
TITLE “Catfish John (Studio Outtake) / Bonus”
PERFORMER “Grateful Dead”
INDEX 00 42:30:68
INDEX 01 42:31:69
TRACK 10 AUDIO
TITLE “Equinox (Studio Outtake) / Bonus”
PERFORMER “Grateful Dead”
INDEX 00 47:11:63
INDEX 01 47:15:48
TRACK 11 AUDIO
TITLE “Fire On The Mountain (Studio Outtake) / Bonus”
PERFORMER “Grateful Dead”
INDEX 00 52:29:53
INDEX 01 52:31:07
TRACK 12 AUDIO
TITLE “Dancin’ In The Streets (Live) / Bonus”
PERFORMER “Grateful Dead”
INDEX 00 58:56:14
INDEX 01 58:57:19


Leave a Reply

Your email address will not be published. Required fields are marked *

This site uses Akismet to reduce spam. Learn how your comment data is processed.