Grateful Dead – Shakedown Street (Remastered)




No Cover available

Artist: Grateful Dead
Year: 1978/2004
Genre: Rock
Notes: Discogs
Add. Notes: Remastered
Watch Songs on: YouTube
Cover incl.: Yes
Encoder: FLAC
Bitrate: ~900 kBit/s (44.1 kHz/16 Bit/s)
Log & Cue incl.: Yes/Yes
Size: 493,4 MB
Password: “slam” (without ” “)


All Downloads/Hosters are compatible

Download 1
KatFile.com
Turbobit.net
FileFactory.com
Rapidgator.net
Download 2
KatFile.com
Turbobit.net
FileFactory.com
Rapidgator.net

Tracklist:

1 Good Lovin' 4:51
2 France 4:03
3 Shakedown Street 4:59
4 Serengetti 1:59
5 Fire On The Mountain 3:46
6 I Need A Miracle 3:36
7 From The Heart Of Me 3:23
8 Stagger Lee 3:25
9 All New Minglewood Blues 4:12
10 If I Had The World To Give 4:50
	
Bonus Material
11 Good Lovin' (Studio Outtake) 4:54
12 Ollin Arageed (Live) 6:30
13 Fire On The Mountain (Live) 13:41
14 Stagger Lee (Live) 6:36
15 All New Minglewood Blues (Live) 4:34

EAC-Log, CUE-Sheed & NFO:

Click to open spoiler
Exact Audio Copy V1.1 from 23. June 2015

EAC extraction logfile from 1. August 2015, 9:35

Grateful Dead / Shakedown Street HDCD

Used drive : PLEXTOR BD-R PX-B950SA Adapter: 1 ID: 1

Read mode : Secure
Utilize accurate stream : Yes
Defeat audio cache : Yes
Make use of C2 pointers : No

Read offset correction : 6
Overread into Lead-In and Lead-Out : No
Fill up missing offset samples with silence : Yes
Delete leading and trailing silent blocks : No
Null samples used in CRC calculations : Yes
Used interface : Native Win32 interface for Win NT & 2000

Used output format : Internal WAV Routines
Sample format : 44.100 Hz; 16 Bit; Stereo

TOC of the extracted CD

Track | Start | Length | Start sector | End sector
———————————————————
1 | 0:00.00 | 4:50.70 | 0 | 21819
2 | 4:50.70 | 4:04.28 | 21820 | 40147
3 | 8:55.23 | 4:59.33 | 40148 | 62605
4 | 13:54.56 | 2:02.44 | 62606 | 71799
5 | 15:57.25 | 3:48.47 | 71800 | 88946
6 | 19:45.72 | 3:35.56 | 88947 | 105127
7 | 23:21.53 | 3:25.27 | 105128 | 120529
8 | 26:47.05 | 3:28.39 | 120530 | 136168
9 | 30:15.44 | 4:16.45 | 136169 | 155413
10 | 34:32.14 | 5:00.08 | 155414 | 177921
11 | 39:32.22 | 4:56.63 | 177922 | 200184
12 | 44:29.10 | 6:30.36 | 200185 | 229470
13 | 50:59.46 | 13:43.04 | 229471 | 291199
14 | 64:42.50 | 6:39.13 | 291200 | 321137
15 | 71:21.63 | 4:34.06 | 321138 | 341693

Range status and errors

Selected range

Filename C:\Users\Meijin\Desktop\Lossless Galaxy ALLexxess\Grateful Dead\2004 Beyond Description 1973-1989 (12HDCD Box Set Rhino Records)\1978 Shakedown Street\Grateful Dead – Shakedown Street HDCD.wav

Peak level 98.8 %
Extraction speed 8.6 X
Range quality 100.0 %
Test CRC EFD010A8
Copy CRC EFD010A8
Copy OK

No errors occurred

AccurateRip summary

Track 1 accurately ripped (confidence 33) [F7DF7C62] (AR v2)
Track 2 accurately ripped (confidence 34) [87D1E21C] (AR v2)
Track 3 accurately ripped (confidence 34) [5DFAE2E2] (AR v2)
Track 4 accurately ripped (confidence 34) [B2FEC42F] (AR v2)
Track 5 accurately ripped (confidence 33) [161E2265] (AR v2)
Track 6 accurately ripped (confidence 34) [3DED4150] (AR v2)
Track 7 accurately ripped (confidence 34) [AAC54BA0] (AR v2)
Track 8 accurately ripped (confidence 34) [D701000F] (AR v2)
Track 9 accurately ripped (confidence 34) [FAE2E122] (AR v2)
Track 10 accurately ripped (confidence 33) [9E0D415A] (AR v2)
Track 11 accurately ripped (confidence 33) [A449802F] (AR v2)
Track 12 accurately ripped (confidence 34) [AB94D68C] (AR v2)
Track 13 accurately ripped (confidence 33) [1BC603DD] (AR v2)
Track 14 accurately ripped (confidence 33) [759ABF05] (AR v2)
Track 15 accurately ripped (confidence 32) [CE3F7F64] (AR v2)

All tracks accurately ripped

End of status report

—- CUETools DB Plugin V2.1.6

[CTDB TOCID: 0HjYwpLf1Gr3Cvd_LImGNkfFrpQ-] found
Submit result: 0HjYwpLf1Gr3Cvd_LImGNkfFrpQ- has been confirmed
Track | CTDB Status
1 | (22/22) Accurately ripped
2 | (22/22) Accurately ripped
3 | (22/22) Accurately ripped
4 | (22/22) Accurately ripped
5 | (22/22) Accurately ripped
6 | (22/22) Accurately ripped
7 | (22/22) Accurately ripped
8 | (22/22) Accurately ripped
9 | (22/22) Accurately ripped
10 | (22/22) Accurately ripped
11 | (22/22) Accurately ripped
12 | (22/22) Accurately ripped
13 | (22/22) Accurately ripped
14 | (21/22) Accurately ripped
15 | (22/22) Accurately ripped

==== Log checksum A224793C7FCC099473F406757EE726EF4983335120F7C84C5754899C8E20ABF0 ====

REM GENRE “Rock / Folk Rock / Blues Rock / Psychedelic Rock”
REM DATE 1978
REM DISCID DF11CB0F
REM COMMENT “ExactAudioCopy v1.1”
PERFORMER “Grateful Dead”
TITLE “Shakedown Street HDCD”
FILE “Grateful Dead – Shakedown Street HDCD.flac” WAVE
TRACK 01 AUDIO
TITLE “Good Lovin'”
PERFORMER “Grateful Dead”
INDEX 01 00:00:00
TRACK 02 AUDIO
TITLE “France”
PERFORMER “Grateful Dead”
INDEX 00 04:48:64
INDEX 01 04:50:70
TRACK 03 AUDIO
TITLE “Shakedown Street”
PERFORMER “Grateful Dead”
INDEX 00 08:54:06
INDEX 01 08:55:23
TRACK 04 AUDIO
TITLE “Serengetti”
PERFORMER “Grateful Dead”
INDEX 01 13:54:56
TRACK 05 AUDIO
TITLE “Fire On The Mountain”
PERFORMER “Grateful Dead”
INDEX 00 15:55:18
INDEX 01 15:57:25
TRACK 06 AUDIO
TITLE “I Need A Miracle”
PERFORMER “Grateful Dead”
INDEX 00 19:43:52
INDEX 01 19:45:72
TRACK 07 AUDIO
TITLE “From The Heart Of Me”
PERFORMER “Grateful Dead”
INDEX 00 23:19:07
INDEX 01 23:21:53
TRACK 08 AUDIO
TITLE “Stagger Lee”
PERFORMER “Grateful Dead”
INDEX 00 26:44:43
INDEX 01 26:47:05
TRACK 09 AUDIO
TITLE “All New Minglewood Blues”
PERFORMER “Grateful Dead”
INDEX 00 30:13:35
INDEX 01 30:15:44
TRACK 10 AUDIO
TITLE “If I Had The World To Give”
PERFORMER “Grateful Dead”
INDEX 00 34:29:35
INDEX 01 34:32:14
TRACK 11 AUDIO
TITLE “Good Lovin’ (Studio Outtake) – Feat. Lowell George / Bonus”
PERFORMER “Grateful Dead”
INDEX 00 39:22:49
INDEX 01 39:32:22
TRACK 12 AUDIO
TITLE “Ollin Arageed (Live) / Bonus”
PERFORMER “Grateful Dead”
INDEX 00 44:27:06
INDEX 01 44:29:10
TRACK 13 AUDIO
TITLE “Fire On The Mountain (Live) / Bonus”
PERFORMER “Grateful Dead”
INDEX 01 50:59:46
TRACK 14 AUDIO
TITLE “Stagger Lee (Live) / Bonus”
PERFORMER “Grateful Dead”
INDEX 00 64:40:69
INDEX 01 64:42:50
TRACK 15 AUDIO
TITLE “All New Minglewood Blues (Live) / Bonus”
PERFORMER “Grateful Dead”
INDEX 00 71:18:68
INDEX 01 71:21:63


Leave a Reply

Your email address will not be published. Required fields are marked *

Enter the text from the image below
 

This site uses Akismet to reduce spam. Learn how your comment data is processed.