Grateful Dead – Reckoning




Artist: Grateful Dead
Year: 1981/1987
Genre: Rock
Notes: Discogs
Add. Notes:
Cover incl.: Yes
Encoder: FLAC
Bitrate: ~800 kBit/s (44.1 kHz/16 Bit/s)
Log & Cue incl.: Yes
Size: 978 MB
Password: “slam” (without ” “)


All Downloads/Hosters are compatible

Download 1
KatFile.com
Turbobit.net
FileFactory.com
Rapidgator.net
Download 2
KatFile.com
Turbobit.net
FileFactory.com
Rapidgator.net

Tracklist:

1 - Dire Wolf - 3:20
2 - The Race Is On - 2:58
3 - It Must Have Been The Roses - 
6:56
4 - Dark Hollow - 3:50
5 - China Doll - 5:20
6 - Been All Around This World - 4:32
7 - Monkey And The Engineer - 2:38
8 - Jack-A-Roe - 4:06
9 - Deep Elem Blues - 6:52
10 - Cassidy - 4:34
11 - To Lay Me Down - 8:59
12 - Rosa Lee McFall - 2:55
13 - On The Road Again - 3:16
14 - Bird Song - 7:35
15 - Ripple - 4:28

EAC-Log, CUE-Sheed & NFO:

Click to open spoiler
Exact Audio Copy V1.1 from 23. June 2015

EAC extraction logfile from 31. July 2015, 21:20

Grateful Dead / Reckoning HDCD 1

Used drive : PLEXTOR BD-R PX-B950SA Adapter: 1 ID: 1

Read mode : Secure
Utilize accurate stream : Yes
Defeat audio cache : Yes
Make use of C2 pointers : No

Read offset correction : 6
Overread into Lead-In and Lead-Out : No
Fill up missing offset samples with silence : Yes
Delete leading and trailing silent blocks : No
Null samples used in CRC calculations : Yes
Used interface : Native Win32 interface for Win NT & 2000

Used output format : Internal WAV Routines
Sample format : 44.100 Hz; 16 Bit; Stereo

TOC of the extracted CD

Track | Start | Length | Start sector | End sector
———————————————————
1 | 0:00.00 | 3:20.19 | 0 | 15018
2 | 3:20.19 | 3:00.27 | 15019 | 28545
3 | 6:20.46 | 6:27.35 | 28546 | 57605
4 | 12:48.06 | 6:59.17 | 57606 | 89047
5 | 19:47.23 | 3:51.21 | 89048 | 106393
6 | 23:38.44 | 5:21.33 | 106394 | 130501
7 | 29:00.02 | 4:13.43 | 130502 | 149519
8 | 33:13.45 | 2:55.26 | 149520 | 162670
9 | 36:08.71 | 4:13.57 | 162671 | 181702
10 | 40:22.53 | 4:53.67 | 181703 | 203744
11 | 45:16.45 | 4:34.17 | 203745 | 224311
12 | 49:50.62 | 9:02.66 | 224312 | 265027
13 | 58:53.53 | 2:53.34 | 265028 | 278036
14 | 61:47.12 | 3:13.12 | 278037 | 292523
15 | 65:00.24 | 7:36.39 | 292524 | 326762
16 | 72:36.63 | 4:27.14 | 326763 | 346801

Range status and errors

Selected range

Filename C:\Users\Meijin\Desktop\Lossless Galaxy ALLexxess\Grateful Dead\2004 Beyond Description 1973-1989 (12HDCD Box Set Rhino Records)\1981 Reckoning 2CD\CD1\Grateful Dead – Reckoning HDCD 1.wav

Peak level 98.8 %
Extraction speed 8.5 X
Range quality 100.0 %
Test CRC 27AF22FF
Copy CRC 27AF22FF
Copy OK

No errors occurred

AccurateRip summary

Track 1 accurately ripped (confidence 61) [48E2E0E3] (AR v2)
Track 2 accurately ripped (confidence 62) [01A53059] (AR v2)
Track 3 accurately ripped (confidence 60) [661CE15F] (AR v2)
Track 4 accurately ripped (confidence 61) [AE6A1A07] (AR v2)
Track 5 accurately ripped (confidence 62) [C71F1AAB] (AR v2)
Track 6 accurately ripped (confidence 62) [FDA04315] (AR v2)
Track 7 accurately ripped (confidence 62) [0ECF33B0] (AR v2)
Track 8 accurately ripped (confidence 62) [1535636F] (AR v2)
Track 9 accurately ripped (confidence 62) [55911464] (AR v2)
Track 10 accurately ripped (confidence 62) [B4A4F942] (AR v2)
Track 11 accurately ripped (confidence 62) [A5B7DE20] (AR v2)
Track 12 accurately ripped (confidence 62) [83A5C54C] (AR v2)
Track 13 accurately ripped (confidence 62) [AF66BE38] (AR v2)
Track 14 accurately ripped (confidence 61) [9D0A318D] (AR v2)
Track 15 accurately ripped (confidence 61) [53B1A1A0] (AR v2)
Track 16 accurately ripped (confidence 61) [4344C20D] (AR v2)

All tracks accurately ripped

End of status report

—- CUETools DB Plugin V2.1.6

[CTDB TOCID: t2XxuwAd3DYjvYabHW5KzsmLLdU-] found
Submit result: t2XxuwAd3DYjvYabHW5KzsmLLdU- has been confirmed
Track | CTDB Status
1 | (39/39) Accurately ripped
2 | (39/39) Accurately ripped
3 | (39/39) Accurately ripped
4 | (39/39) Accurately ripped
5 | (39/39) Accurately ripped
6 | (38/39) Accurately ripped
7 | (38/39) Accurately ripped
8 | (38/39) Accurately ripped
9 | (38/39) Accurately ripped
10 | (38/39) Accurately ripped
11 | (38/39) Accurately ripped
12 | (38/39) Accurately ripped
13 | (38/39) Accurately ripped
14 | (39/39) Accurately ripped
15 | (39/39) Accurately ripped
16 | (39/39) Accurately ripped

==== Log checksum D0CCC56B1BDF0F9E4961C8EBF82F86973AF53A963A95188D90C1697AE40777C2 ====

Exact Audio Copy V1.1 from 23. June 2015

EAC extraction logfile from 31. July 2015, 20:51

Grateful Dead / Reckoning HDCD 2

Used drive : PLEXTOR BD-R PX-B950SA Adapter: 1 ID: 1

Read mode : Secure
Utilize accurate stream : Yes
Defeat audio cache : Yes
Make use of C2 pointers : No

Read offset correction : 6
Overread into Lead-In and Lead-Out : No
Fill up missing offset samples with silence : Yes
Delete leading and trailing silent blocks : No
Null samples used in CRC calculations : Yes
Used interface : Native Win32 interface for Win NT & 2000

Used output format : Internal WAV Routines
Sample format : 44.100 Hz; 16 Bit; Stereo

TOC of the extracted CD

Track | Start | Length | Start sector | End sector
———————————————————
1 | 0:00.00 | 9:13.07 | 0 | 41481
2 | 9:13.07 | 4:23.08 | 41482 | 61214
3 | 13:36.15 | 6:18.05 | 61215 | 89569
4 | 19:54.20 | 4:40.67 | 89570 | 110636
5 | 24:35.12 | 3:13.61 | 110637 | 125172
6 | 27:48.73 | 2:44.42 | 125173 | 137514
7 | 30:33.40 | 7:00.38 | 137515 | 169052
8 | 37:34.03 | 4:30.16 | 169053 | 189318
9 | 42:04.19 | 5:07.45 | 189319 | 212388
10 | 47:11.64 | 5:06.32 | 212389 | 235370
11 | 52:18.21 | 5:52.28 | 235371 | 261798
12 | 58:10.49 | 2:36.62 | 261799 | 273560
13 | 60:47.36 | 7:12.28 | 273561 | 305988
14 | 67:59.64 | 4:39.49 | 305989 | 326962
15 | 72:39.38 | 3:32.57 | 326963 | 342919
16 | 76:12.20 | 3:42.03 | 342920 | 359572

Range status and errors

Selected range

Filename C:\Users\Meijin\Desktop\Lossless Galaxy ALLexxess\Grateful Dead\2004 Beyond Description 1973-1989 (12HDCD Box Set Rhino Records)\1981 Reckoning 2CD\CD2\Grateful Dead – Reckoning HDCD 2.wav

Peak level 98.8 %
Extraction speed 8.7 X
Range quality 100.0 %
Test CRC 03C9B5B7
Copy CRC 03C9B5B7
Copy OK

No errors occurred

AccurateRip summary

Track 1 accurately ripped (confidence 47) [9C6B6928] (AR v2)
Track 2 accurately ripped (confidence 47) [3DFF0F1A] (AR v2)
Track 3 accurately ripped (confidence 48) [46ECE58B] (AR v2)
Track 4 accurately ripped (confidence 47) [B83795E9] (AR v2)
Track 5 accurately ripped (confidence 48) [ED8510CB] (AR v2)
Track 6 accurately ripped (confidence 47) [C8C39AEB] (AR v2)
Track 7 accurately ripped (confidence 47) [DCF54D64] (AR v2)
Track 8 accurately ripped (confidence 47) [3C6EF6A0] (AR v2)
Track 9 accurately ripped (confidence 47) [302A0237] (AR v2)
Track 10 accurately ripped (confidence 47) [071FFED2] (AR v2)
Track 11 accurately ripped (confidence 47) [C5FE686B] (AR v2)
Track 12 accurately ripped (confidence 48) [99F8A17D] (AR v2)
Track 13 accurately ripped (confidence 48) [F9A62B89] (AR v2)
Track 14 accurately ripped (confidence 48) [A59FE82C] (AR v2)
Track 15 accurately ripped (confidence 47) [C92D00DA] (AR v2)
Track 16 accurately ripped (confidence 47) [3C8B2DE7] (AR v2)

All tracks accurately ripped

End of status report

—- CUETools DB Plugin V2.1.6

[CTDB TOCID: bqwC2rHucCtwTGoszInjE4ZPTlE-] found
Submit result: bqwC2rHucCtwTGoszInjE4ZPTlE- has been confirmed
Track | CTDB Status
1 | (39/40) Accurately ripped
2 | (39/40) Accurately ripped
3 | (39/40) Accurately ripped
4 | (39/40) Accurately ripped
5 | (39/40) Accurately ripped
6 | (39/40) Accurately ripped
7 | (39/40) Accurately ripped
8 | (39/40) Accurately ripped
9 | (39/40) Accurately ripped
10 | (39/40) Accurately ripped
11 | (39/40) Accurately ripped
12 | (39/40) Accurately ripped
13 | (38/40) Accurately ripped
14 | (39/40) Accurately ripped
15 | (39/40) Accurately ripped
16 | (37/40) Accurately ripped

==== Log checksum 3F36999C94FBA7F04829F7FBB48AEB8BFA04847E01C661542BF2D44FF3441CD3 ====

REM GENRE “Rock / Folk Rock / Blues Rock / Psychedelic Rock”
REM DATE 1981
REM DISCID F212BA10
REM COMMENT “ExactAudioCopy v1.1”
PERFORMER “Grateful Dead”
TITLE “Reckoning HDCD 2”
FILE “Grateful Dead – Reckoning HDCD 2.flac” WAVE
TRACK 01 AUDIO
TITLE “To Lay Me Down (Studio Rehearsal)”
PERFORMER “Grateful Dead”
INDEX 01 00:00:00
TRACK 02 AUDIO
TITLE “Iko Iko”
PERFORMER “Grateful Dead”
INDEX 00 09:11:72
INDEX 01 09:13:07
TRACK 03 AUDIO
TITLE “Heaven Help the Fool”
PERFORMER “Grateful Dead”
INDEX 01 13:36:15
TRACK 04 AUDIO
TITLE “El Paso”
PERFORMER “Grateful Dead”
INDEX 01 19:54:20
TRACK 05 AUDIO
TITLE “Sage & Spirit”
PERFORMER “Grateful Dead”
INDEX 01 24:35:12
TRACK 06 AUDIO
TITLE “Little Sadie”
PERFORMER “Grateful Dead”
INDEX 01 27:48:73
TRACK 07 AUDIO
TITLE “It Must Have Been The Roses (Alternate Live Version)”
PERFORMER “Grateful Dead”
INDEX 01 30:33:40
TRACK 08 AUDIO
TITLE “Dark Hollow (Alternate Live Version)”
PERFORMER “Grateful Dead”
INDEX 01 37:34:03
TRACK 09 AUDIO
TITLE “Jack-A-Roe (Alternate Live Version)”
PERFORMER “Grateful Dead”
INDEX 01 42:04:19
TRACK 10 AUDIO
TITLE “Cassidy (Alternate Live Version)”
PERFORMER “Grateful Dead”
INDEX 01 47:11:64
TRACK 11 AUDIO
TITLE “China Doll (Alternate Live Version)”
PERFORMER “Grateful Dead”
INDEX 01 52:18:21
TRACK 12 AUDIO
TITLE “Monkey And The Engineer (Alternate Live Version)”
PERFORMER “Grateful Dead”
INDEX 01 58:10:49
TRACK 13 AUDIO
TITLE “Oh Babe It Ain’t No Lie (Alternate Live Version)”
PERFORMER “Grateful Dead”
INDEX 01 60:47:36
TRACK 14 AUDIO
TITLE “Ripple (Alternate Live Version)”
PERFORMER “Grateful Dead”
INDEX 01 67:59:64
TRACK 15 AUDIO
TITLE “Tom Dooley”
PERFORMER “Grateful Dead”
INDEX 00 72:36:41
INDEX 01 72:39:38
TRACK 16 AUDIO
TITLE “Deep Elem Blues (Alternate Live Version, 1978)”
PERFORMER “Grateful Dead”
INDEX 01 76:12:20

REM GENRE “Rock / Folk Rock / Blues Rock / Psychedelic Rock”
REM DATE 1981
REM DISCID E4121010
REM COMMENT “ExactAudioCopy v1.1”
PERFORMER “Grateful Dead”
TITLE “Reckoning HDCD 1”
FILE “Grateful Dead – Reckoning HDCD 1.flac” WAVE
TRACK 01 AUDIO
TITLE “Dire Wolf”
PERFORMER “Grateful Dead”
INDEX 01 00:00:00
TRACK 02 AUDIO
TITLE “The Race Is On”
PERFORMER “Grateful Dead”
INDEX 01 03:20:19
TRACK 03 AUDIO
TITLE “Oh Babe It Ain’t No Lie”
PERFORMER “Grateful Dead”
INDEX 01 06:20:46
TRACK 04 AUDIO
TITLE “It Must Have Been The Roses”
PERFORMER “Grateful Dead”
INDEX 01 12:48:06
TRACK 05 AUDIO
TITLE “Dark Hollow”
PERFORMER “Grateful Dead”
INDEX 01 19:47:23
TRACK 06 AUDIO
TITLE “China Doll”
PERFORMER “Grateful Dead”
INDEX 01 23:38:44
TRACK 07 AUDIO
TITLE “Been All Around This World”
PERFORMER “Grateful Dead”
INDEX 01 29:00:02
TRACK 08 AUDIO
TITLE “Monkey And The Engineer”
PERFORMER “Grateful Dead”
INDEX 01 33:13:45
TRACK 09 AUDIO
TITLE “Jack-A-Roe”
PERFORMER “Grateful Dead”
INDEX 01 36:08:71
TRACK 10 AUDIO
TITLE “Deep Elem Blues”
PERFORMER “Grateful Dead”
INDEX 01 40:22:53
TRACK 11 AUDIO
TITLE “Cassidy”
PERFORMER “Grateful Dead”
INDEX 01 45:16:45
TRACK 12 AUDIO
TITLE “To Lay Me Down”
PERFORMER “Grateful Dead”
INDEX 01 49:50:62
TRACK 13 AUDIO
TITLE “Rosalie McFall”
PERFORMER “Grateful Dead”
INDEX 01 58:53:53
TRACK 14 AUDIO
TITLE “On The Road Again”
PERFORMER “Grateful Dead”
INDEX 01 61:47:12
TRACK 15 AUDIO
TITLE “Bird Song”
PERFORMER “Grateful Dead”
INDEX 01 65:00:24
TRACK 16 AUDIO
TITLE “Ripple”
PERFORMER “Grateful Dead”
INDEX 01 72:36:63


Leave a Reply

Your email address will not be published. Required fields are marked *

This site uses Akismet to reduce spam. Learn how your comment data is processed.