Grateful Dead – Live/Dead (Remastered)




[Total: 0    Average: 0/5]

Artist: Grateful Dead
Year: 1969
Genre: Rock
Notes: Discogs
Add. Notes: Remastered
Cover incl.: Yes
Encoder: FLAC
Bitrate: ~700 kBit/s (44.1 kHz/16 Bit/s)
Log & Cue incl.: Yes/Yes
Size: 504,4 MB
Password: “slam” (without ” “)


All Downloads/Hosters are compatible

Download 1
KatFile.com
Turbobit.net
FileFactory.com
Rapidgator.net
Download 2
KatFile.com
Turbobit.net
FileFactory.com
Rapidgator.net

Tracklist:

1 Dark Star 23:19
2 St. Stephen 6:32
3 The Eleven 9:19
4 Turn On Your Love Light 15:05
5 Death Don't Have No Mercy 10:28
6 Feedback 7:49
7 And We Bid You Goodnight 0:37
8 [Hidden Track: Dark Star] 2:45
9 [Hidden Track: Radio Advertisement] 1:01

EAC-Log, CUE-Sheed & NFO:

Click to open spoiler
Exact Audio Copy V1.1 from 23. June 2015

EAC extraction logfile from 1. August 2015, 19:08

Grateful Dead / Live / Dead HDCD

Used drive : PLEXTOR BD-R PX-B950SA Adapter: 1 ID: 1

Read mode : Secure
Utilize accurate stream : Yes
Defeat audio cache : Yes
Make use of C2 pointers : No

Read offset correction : 6
Overread into Lead-In and Lead-Out : No
Fill up missing offset samples with silence : Yes
Delete leading and trailing silent blocks : No
Null samples used in CRC calculations : Yes
Used interface : Native Win32 interface for Win NT & 2000

Used output format : Internal WAV Routines
Sample format : 44.100 Hz; 16 Bit; Stereo

TOC of the extracted CD

Track | Start | Length | Start sector | End sector
———————————————————
1 | 0:00.32 | 23:18.53 | 32 | 104934
2 | 23:19.10 | 6:31.67 | 104935 | 134326
3 | 29:51.02 | 9:18.60 | 134327 | 176236
4 | 39:09.62 | 15:05.10 | 176237 | 244121
5 | 54:14.72 | 10:28.25 | 244122 | 291246
6 | 64:43.22 | 7:49.08 | 291247 | 326429
7 | 72:32.30 | 3:13.02 | 326430 | 340906
8 | 75:45.32 | 2:44.40 | 340907 | 353246
9 | 78:29.72 | 1:00.60 | 353247 | 357806

Range status and errors

Selected range

Filename C:\Users\Meijin\Desktop\Lossless Galaxy ALLexxess\Grateful Dead\2001 The Golden Road 1965-1973 (12HDCD Box Set Rhino Records)\1969 Live – Dead\Grateful Dead – Live Dead HDCD.wav

Peak level 98.8 %
Extraction speed 8.7 X
Range quality 100.0 %
Test CRC 46545AAE
Copy CRC 46545AAE
Copy OK

No errors occurred

AccurateRip summary

Track 1 accurately ripped (confidence 110) [3BC10DAB] (AR v2)
Track 2 accurately ripped (confidence 112) [B93C13FE] (AR v2)
Track 3 accurately ripped (confidence 112) [FC7EB9D6] (AR v2)
Track 4 accurately ripped (confidence 111) [9452FC5B] (AR v2)
Track 5 accurately ripped (confidence 111) [D9AF60EF] (AR v2)
Track 6 accurately ripped (confidence 109) [FD1C4169] (AR v2)
Track 7 accurately ripped (confidence 106) [F71F173C] (AR v2)
Track 8 accurately ripped (confidence 105) [A420A173] (AR v2)
Track 9 accurately ripped (confidence 105) [5BF296EF] (AR v2)

All tracks accurately ripped

End of status report

—- CUETools DB Plugin V2.1.6

[CTDB TOCID: 1vlTPErCgRjzgVcGTAi.i43COm8-] found
Submit result: 1vlTPErCgRjzgVcGTAi.i43COm8- has been confirmed
Track | CTDB Status
1 | (27/29) Accurately ripped
2 | (27/29) Accurately ripped
3 | (27/29) Accurately ripped
4 | (27/29) Accurately ripped
5 | (27/29) Accurately ripped
6 | (27/29) Accurately ripped
7 | (27/29) Accurately ripped
8 | (27/29) Accurately ripped
9 | (26/29) Accurately ripped

==== Log checksum 6BA6F1162136BB6291F9DD3FABC366A87C9DC3668AC1BE255BD0B8252AD3636D ====

REM GENRE “Rock / Folk Rock / Blues Rock / Psychedelic Rock”
REM DATE 1969
REM DISCID 8012A209
REM COMMENT “ExactAudioCopy v1.1”
PERFORMER “Grateful Dead”
TITLE “Live / Dead HDCD”
FILE “Grateful Dead – Live Dead HDCD.flac” WAVE
TRACK 01 AUDIO
TITLE “Dark Star”
PERFORMER “Grateful Dead”
INDEX 00 00:00:00
INDEX 01 00:00:32
TRACK 02 AUDIO
TITLE “St. Stephen”
PERFORMER “Grateful Dead”
INDEX 01 23:19:10
TRACK 03 AUDIO
TITLE “The Eleven”
PERFORMER “Grateful Dead”
INDEX 01 29:51:02
TRACK 04 AUDIO
TITLE “Turn On Your Love Light”
PERFORMER “Grateful Dead”
INDEX 01 39:09:62
TRACK 05 AUDIO
TITLE “Death Don’t Have No Mercy”
PERFORMER “Grateful Dead”
INDEX 01 54:14:72
TRACK 06 AUDIO
TITLE “Feedback”
PERFORMER “Grateful Dead”
INDEX 01 64:43:22
TRACK 07 AUDIO
TITLE “And We Bid You Goodnight”
PERFORMER “Grateful Dead”
INDEX 01 72:32:30
TRACK 08 AUDIO
TITLE “Dark Star (Single Version) / Bonus”
PERFORMER “Grateful Dead”
INDEX 00 73:09:35
INDEX 01 75:45:32
TRACK 09 AUDIO
TITLE “Radio Spot / Bonus”
PERFORMER “Grateful Dead”
INDEX 00 78:27:27
INDEX 01 78:29:72


Spread the Download

Leave a Reply

Your email address will not be published. Required fields are marked *

Enter the text from the image below
 

This site uses Akismet to reduce spam. Learn how your comment data is processed.