Grateful Dead – In The Dark




No Cover available

Artist: Grateful Dead
Year: 1987
Genre: Rock
Notes: Discogs
Add. Notes:
Watch Songs on: YouTube
Cover incl.: Yes
Encoder: FLAC
Bitrate: ~900 kBit/s (44.1 kHz/16 Bit/s)
Log & Cue incl.: Yes/Yes
Size: 531,4 MB
Password: “slam” (without ” “)


All Downloads/Hosters are compatible

Download 1
KatFile.com
Turbobit.net
Rapidgator.net
FileFactory.com
Download 2
KatFile.com
Turbobit.net
Rapidgator.net
FileFactory.com

Tracklist:

1 Touch Of Grey 5:47
2 Hell In A Bucket 5:35
3 When Push Comes To Shove 4:05
4 West L.A. Fadeaway 6:39
5 Tons Of Steel 5:15
6 Throwing Stones 7:18
7 Black Muddy River 5:58

EAC-Log, CUE-Sheed & NFO:

Click to open spoiler
Exact Audio Copy V1.1 from 23. June 2015

EAC extraction logfile from 31. July 2015, 20:03

Grateful Dead / In The Dark HDCD

Used drive : PLEXTOR BD-R PX-B950SA Adapter: 1 ID: 1

Read mode : Secure
Utilize accurate stream : Yes
Defeat audio cache : Yes
Make use of C2 pointers : No

Read offset correction : 6
Overread into Lead-In and Lead-Out : No
Fill up missing offset samples with silence : Yes
Delete leading and trailing silent blocks : No
Null samples used in CRC calculations : Yes
Used interface : Native Win32 interface for Win NT & 2000

Used output format : Internal WAV Routines
Sample format : 44.100 Hz; 16 Bit; Stereo

TOC of the extracted CD

Track | Start | Length | Start sector | End sector
———————————————————
1 | 0:00.00 | 5:50.53 | 0 | 26302
2 | 5:50.53 | 5:37.30 | 26303 | 51607
3 | 11:28.08 | 4:08.05 | 51608 | 70212
4 | 15:36.13 | 6:38.51 | 70213 | 100113
5 | 22:14.64 | 5:18.32 | 100114 | 123995
6 | 27:33.21 | 7:20.56 | 123996 | 157051
7 | 34:54.02 | 6:07.72 | 157052 | 184648
8 | 41:01.74 | 4:20.58 | 184649 | 204206
9 | 45:22.57 | 7:09.03 | 204207 | 236384
10 | 52:31.60 | 5:41.41 | 236385 | 262000
11 | 58:13.26 | 4:22.44 | 262001 | 281694
12 | 62:35.70 | 5:47.60 | 281695 | 307779
13 | 68:23.55 | 9:36.10 | 307780 | 350989

Range status and errors

Selected range

Filename C:\Users\Meijin\Desktop\Lossless Galaxy ALLexxess\Grateful Dead\2004 Beyond Description 1973-1989 (12HDCD Box Set Rhino Records)\1987 In The Dark\Grateful Dead – In The Dark HDCD.wav

Peak level 98.8 %
Extraction speed 8.5 X
Range quality 99.9 %
Test CRC 03ED6654
Copy CRC 03ED6654
Copy OK

No errors occurred

AccurateRip summary

Track 1 accurately ripped (confidence 48) [2AA9D87A] (AR v2)
Track 2 accurately ripped (confidence 49) [A5FB5E9B] (AR v2)
Track 3 accurately ripped (confidence 49) [3C2F1A14] (AR v2)
Track 4 accurately ripped (confidence 49) [03450F2C] (AR v2)
Track 5 accurately ripped (confidence 49) [6584701D] (AR v2)
Track 6 accurately ripped (confidence 49) [410F7350] (AR v2)
Track 7 accurately ripped (confidence 49) [8B406F3C] (AR v2)
Track 8 accurately ripped (confidence 49) [AB19FF8F] (AR v2)
Track 9 accurately ripped (confidence 48) [A4A76D9E] (AR v2)
Track 10 accurately ripped (confidence 48) [08E4D227] (AR v2)
Track 11 accurately ripped (confidence 48) [485B2BA0] (AR v2)
Track 12 accurately ripped (confidence 48) [A075FDF5] (AR v2)
Track 13 accurately ripped (confidence 47) [8203B0EF] (AR v2)

All tracks accurately ripped

End of status report

—- CUETools DB Plugin V2.1.6

[CTDB TOCID: zuIc9L4T0XgD978eJ2m9LA8STbI-] found
Submit result: zuIc9L4T0XgD978eJ2m9LA8STbI- has been confirmed
Track | CTDB Status
1 | (31/31) Accurately ripped
2 | (31/31) Accurately ripped
3 | (31/31) Accurately ripped
4 | (31/31) Accurately ripped
5 | (31/31) Accurately ripped
6 | (30/31) Accurately ripped
7 | (30/31) Accurately ripped
8 | (30/31) Accurately ripped
9 | (30/31) Accurately ripped
10 | (30/31) Accurately ripped
11 | (30/31) Accurately ripped
12 | (30/31) Accurately ripped
13 | (30/31) Accurately ripped

==== Log checksum 0F97057DAA42FE682A4BE499D900938F74276BD79863F2DF01E9EB18F4392E7D ====

REM GENRE “Rock / Folk Rock / Blues Rock / Psychedelic Rock”
REM DATE 1987
REM DISCID BD12470D
REM COMMENT “ExactAudioCopy v1.1”
PERFORMER “Grateful Dead”
TITLE “In The Dark HDCD”
FILE “Grateful Dead – In The Dark HDCD.flac” WAVE
TRACK 01 AUDIO
TITLE “Touch Of Grey”
PERFORMER “Grateful Dead”
INDEX 01 00:00:00
TRACK 02 AUDIO
TITLE “Hell In A Bucket”
PERFORMER “Grateful Dead”
INDEX 00 05:48:10
INDEX 01 05:50:53
TRACK 03 AUDIO
TITLE “When Push Comes To Shove”
PERFORMER “Grateful Dead”
INDEX 00 11:25:28
INDEX 01 11:28:08
TRACK 04 AUDIO
TITLE “West L.A. Fadeaway”
PERFORMER “Grateful Dead”
INDEX 00 15:32:58
INDEX 01 15:36:13
TRACK 05 AUDIO
TITLE “Tons Of Steel”
PERFORMER “Grateful Dead”
INDEX 00 22:13:53
INDEX 01 22:14:64
TRACK 06 AUDIO
TITLE “Throwing Stones”
PERFORMER “Grateful Dead”
INDEX 00 27:31:26
INDEX 01 27:33:21
TRACK 07 AUDIO
TITLE “Black Muddy River”
PERFORMER “Grateful Dead”
INDEX 00 34:52:14
INDEX 01 34:54:02
TRACK 08 AUDIO
TITLE “My Brother Esau (Single B-Side) / Bonus”
PERFORMER “Grateful Dead”
INDEX 00 40:52:14
INDEX 01 41:01:74
TRACK 09 AUDIO
TITLE “West L.A. Fadeaway (Alternate Version, 1984) / Bonus”
PERFORMER “Grateful Dead”
INDEX 00 45:19:58
INDEX 01 45:22:57
TRACK 10 AUDIO
TITLE “Black Muddy River (Studio Rehearsal) / Bonus”
PERFORMER “Grateful Dead”
INDEX 00 52:30:58
INDEX 01 52:31:60
TRACK 11 AUDIO
TITLE “When Push Comes To Shove (Studio Rehearsal) / Bonus”
PERFORMER “Grateful Dead”
INDEX 00 58:10:23
INDEX 01 58:13:26
TRACK 12 AUDIO
TITLE “Touch Of Grey (Studio Rehearsal) / Bonus”
PERFORMER “Grateful Dead”
INDEX 00 62:34:27
INDEX 01 62:35:70
TRACK 13 AUDIO
TITLE “Throwing Stones (Live) / Bonus”
PERFORMER “Grateful Dead”
INDEX 00 68:20:05
INDEX 01 68:23:55


Leave a Reply

Your email address will not be published. Required fields are marked *

Enter the text from the image below
 

This site uses Akismet to reduce spam. Learn how your comment data is processed.