Grateful Dead – History Of The Grateful Dead, Vol. I (Bear’s Choice)




Artist: Grateful Dead
Year: 1973/2003
Genre: Rock
Notes: Discogs
Add. Notes:
Cover incl.: Yes
Encoder: FLAC
Bitrate: ~800 kBit/s (44.1 kHz/16 Bit/s)
Log & Cue incl.: Yes
Size: 529 MB
Password: “slam” (without ” “)


All Downloads/Hosters are compatible

Download 1
KatFile.com
Turbobit.net
Rapidgator.net
Turbobit.net
Download 2
KatFile.com
Turbobit.net
Rapidgator.net
Turbobit.net

Tracklist:

1  - Katie Mae  - 4:44
2  - Dark Hollow  - 3:52
3  - I've Been All Around This World  - 
4:19
4  - Wake Up Little Susie  - 2:31
5  - Black Peter  - 7:28
6  - Smokestack Lightnin'  - 17:59
7  - Hard To Handle  - 6:15
Bonus Material
8  - Good Lovin'  - 8:57
9  - Big Boss Man  - 4:54
10  - Smokestack Lightnin' (Version 
Two)  - 15:11
11  - Sitting On Top Of The World  - 
3:20

EAC-Log, CUE-Sheed & NFO:

Click to open spoiler
Exact Audio Copy V1.1 from 23. June 2015

EAC extraction logfile from 1. August 2015, 12:06

Grateful Dead / History Of The Grateful Dead, Vol. I HDCD

Used drive : PLEXTOR BD-R PX-B950SA Adapter: 1 ID: 1

Read mode : Secure
Utilize accurate stream : Yes
Defeat audio cache : Yes
Make use of C2 pointers : No

Read offset correction : 6
Overread into Lead-In and Lead-Out : No
Fill up missing offset samples with silence : Yes
Delete leading and trailing silent blocks : No
Null samples used in CRC calculations : Yes
Used interface : Native Win32 interface for Win NT & 2000

Used output format : Internal WAV Routines
Sample format : 44.100 Hz; 16 Bit; Stereo

TOC of the extracted CD

Track | Start | Length | Start sector | End sector
———————————————————
1 | 0:00.32 | 4:44.20 | 32 | 21351
2 | 4:44.52 | 3:52.18 | 21352 | 38769
3 | 8:36.70 | 4:18.42 | 38770 | 58161
4 | 12:55.37 | 2:31.10 | 58162 | 69496
5 | 15:26.47 | 7:27.55 | 69497 | 103076
6 | 22:54.27 | 17:59.03 | 103077 | 184004
7 | 40:53.30 | 6:29.70 | 184005 | 213249
8 | 47:23.25 | 8:56.57 | 213250 | 253506
9 | 56:20.07 | 4:53.55 | 253507 | 275536
10 | 61:13.62 | 15:11.35 | 275537 | 343896
11 | 76:25.22 | 3:20.08 | 343897 | 358904

Range status and errors

Selected range

Filename C:\Users\Meijin\Desktop\Lossless Galaxy ALLexxess\Grateful Dead\2001 The Golden Road 1965-1973 (12HDCD Box Set Rhino Records)\1973 History Of The Grateful Dead, Vol. I (Bear’s Choice)\Grateful Dead – History Of The Grateful Dead, Vol. I HDCD.w

Peak level 98.8 %
Extraction speed 8.6 X
Range quality 100.0 %
Test CRC D47BEF02
Copy CRC D47BEF02
Copy OK

No errors occurred

AccurateRip summary

Track 1 accurately ripped (confidence 75) [497A65F7] (AR v2)
Track 2 accurately ripped (confidence 77) [5D6259E8] (AR v2)
Track 3 accurately ripped (confidence 77) [A4077CD2] (AR v2)
Track 4 accurately ripped (confidence 77) [3522E228] (AR v2)
Track 5 accurately ripped (confidence 77) [259B63C8] (AR v2)
Track 6 accurately ripped (confidence 77) [1DDCC54E] (AR v2)
Track 7 accurately ripped (confidence 76) [5B8493DF] (AR v2)
Track 8 accurately ripped (confidence 76) [6ACE126F] (AR v2)
Track 9 accurately ripped (confidence 76) [42738634] (AR v2)
Track 10 accurately ripped (confidence 75) [B62ECEFA] (AR v2)
Track 11 accurately ripped (confidence 73) [218B2F5B] (AR v2)

All tracks accurately ripped

End of status report

—- CUETools DB Plugin V2.1.6

[CTDB TOCID: NOprQux9AMWKSC1WPplJj4CxMkE-] found
Submit result: NOprQux9AMWKSC1WPplJj4CxMkE- has been confirmed
Track | CTDB Status
1 | (15/16) Accurately ripped
2 | (15/16) Accurately ripped
3 | (15/16) Accurately ripped
4 | (15/16) Accurately ripped
5 | (15/16) Accurately ripped
6 | (15/16) Accurately ripped
7 | (15/16) Accurately ripped
8 | (15/16) Accurately ripped
9 | (15/16) Accurately ripped
10 | (14/16) Accurately ripped
11 | (14/16) Accurately ripped

==== Log checksum AC03460A2D395826E80ABB70794321BB387A19DBD243CC2067D8C8D1C06F45E6 ====

REM GENRE “Rock / Folk Rock / Blues Rock / Psychedelic Rock”
REM DATE 1973
REM DISCID B912B10B
REM COMMENT “ExactAudioCopy v1.1”
PERFORMER “Grateful Dead”
TITLE “History Of The Grateful Dead, Vol. I HDCD”
FILE “Grateful Dead – History Of The Grateful Dead, Vol. I HDCD.flac” WAVE
TRACK 01 AUDIO
TITLE “Katie Mae”
PERFORMER “Grateful Dead”
INDEX 00 00:00:00
INDEX 01 00:00:32
TRACK 02 AUDIO
TITLE “Dark Hollow”
PERFORMER “Grateful Dead”
INDEX 01 04:44:52
TRACK 03 AUDIO
TITLE “I’ve Been All Around This World”
PERFORMER “Grateful Dead”
INDEX 01 08:36:70
TRACK 04 AUDIO
TITLE “Wake Up Little Susie”
PERFORMER “Grateful Dead”
INDEX 01 12:55:37
TRACK 05 AUDIO
TITLE “Black Peter”
PERFORMER “Grateful Dead”
INDEX 01 15:26:47
TRACK 06 AUDIO
TITLE “Smokestack Lightnin'”
PERFORMER “Grateful Dead”
INDEX 01 22:54:27
TRACK 07 AUDIO
TITLE “Hard To Handle”
PERFORMER “Grateful Dead”
INDEX 01 40:53:30
TRACK 08 AUDIO
TITLE “Good Lovin’ / Bonus”
PERFORMER “Grateful Dead”
INDEX 00 47:08:60
INDEX 01 47:23:25
TRACK 09 AUDIO
TITLE “Big Boss Man / Bonus”
PERFORMER “Grateful Dead”
INDEX 01 56:20:07
TRACK 10 AUDIO
TITLE “Smokestack Lightnin’ (Version Two) / Bonus”
PERFORMER “Grateful Dead”
INDEX 01 61:13:62
TRACK 11 AUDIO
TITLE “Sitting On Top Of The World / Bonus”
PERFORMER “Grateful Dead”
INDEX 01 76:25:22


Leave a Reply

Your email address will not be published. Required fields are marked *

This site uses Akismet to reduce spam. Learn how your comment data is processed.