Grateful Dead – Go To Heaven (Remastered)




No Cover available

Artist: Grateful Dead
Year: 1980/2004
Genre: Rock
Notes: Discogs
Add. Notes: Remastered
Watch Songs on: YouTube
Cover incl.: Yes
Encoder: FLAC
Bitrate: ~900 kBit/s (44.1 kHz/16 Bit/s)
Log & Cue incl.: Yes/Yes
Size: 487,8 MB
Password: “slam” (without ” “)


All Downloads/Hosters are compatible

Download 1
KatFile.com
Turbobit.net
FileFactory.com
Rapidgator.net
Download 2
KatFile.com
Turbobit.net
FileFactory.com
Rapidgator.net

Tracklist:

1 Alabama Getaway 3:37
2 Far From Me 3:39
3 Althea 6:52
4 Feel Like A Stranger 5:06
5 Lost Sailor 5:54
6 Saint Of Circumstance 5:40
7 Antwerp's Placebo (The Plumber) 0:39
8 Easy To Love You 3:39
9 Don't Ease Me In 3:13

Bonus Material
10 Peggy-O (Studio Outtake) 5:49
11 What'll You Raise (Studio Outtake) 4:08
12 Jack-A-Roe (Studio Outtake) 4:51
13 Althea (Live) 8:17
14 Lost Sailor (Live) 6:42
15 Saint Of Circumstance (Live) 6:35

EAC-Log, CUE-Sheed & NFO:

Click to open spoiler
Exact Audio Copy V1.1 from 23. June 2015

EAC extraction logfile from 1. August 2015, 9:04

Grateful Dead / Go To Heaven HDCD

Used drive : PLEXTOR BD-R PX-B950SA Adapter: 1 ID: 1

Read mode : Secure
Utilize accurate stream : Yes
Defeat audio cache : Yes
Make use of C2 pointers : No

Read offset correction : 6
Overread into Lead-In and Lead-Out : No
Fill up missing offset samples with silence : Yes
Delete leading and trailing silent blocks : No
Null samples used in CRC calculations : Yes
Used interface : Native Win32 interface for Win NT & 2000

Used output format : Internal WAV Routines
Sample format : 44.100 Hz; 16 Bit; Stereo

TOC of the extracted CD

Track | Start | Length | Start sector | End sector
———————————————————
1 | 0:00.00 | 3:37.02 | 0 | 16276
2 | 3:37.02 | 3:39.22 | 16277 | 32723
3 | 7:16.24 | 6:52.25 | 32724 | 63648
4 | 14:08.49 | 5:08.56 | 63649 | 86804
5 | 19:17.30 | 5:54.23 | 86805 | 113377
6 | 25:11.53 | 5:39.59 | 113378 | 138861
7 | 30:51.37 | 0:39.24 | 138862 | 141810
8 | 31:30.61 | 3:38.42 | 141811 | 158202
9 | 35:09.28 | 3:23.18 | 158203 | 173445
10 | 38:32.46 | 5:51.71 | 173446 | 199841
11 | 44:24.42 | 4:10.50 | 199842 | 218641
12 | 48:35.17 | 4:55.48 | 218642 | 240814
13 | 53:30.65 | 8:17.18 | 240815 | 278107
14 | 61:48.08 | 6:41.39 | 278108 | 308221
15 | 68:29.47 | 6:35.33 | 308222 | 337879

Range status and errors

Selected range

Filename C:\Users\Meijin\Desktop\Lossless Galaxy ALLexxess\Grateful Dead\2004 Beyond Description 1973-1989 (12HDCD Box Set Rhino Records)\1980 Go To Heaven\Grateful Dead – Go To Heaven HDCD.wav

Peak level 98.8 %
Extraction speed 8.5 X
Range quality 100.0 %
Test CRC D21971AC
Copy CRC D21971AC
Copy OK

No errors occurred

AccurateRip summary

Track 1 accurately ripped (confidence 40) [48A80A5A] (AR v2)
Track 2 accurately ripped (confidence 41) [3A13853E] (AR v2)
Track 3 accurately ripped (confidence 42) [7F720DFB] (AR v2)
Track 4 accurately ripped (confidence 42) [BEFC74C5] (AR v2)
Track 5 accurately ripped (confidence 41) [3F139274] (AR v2)
Track 6 accurately ripped (confidence 41) [75E270F1] (AR v2)
Track 7 accurately ripped (confidence 41) [EA3546B1] (AR v2)
Track 8 accurately ripped (confidence 41) [B3D3E317] (AR v2)
Track 9 accurately ripped (confidence 41) [AA25E4DE] (AR v2)
Track 10 accurately ripped (confidence 42) [30BB0025] (AR v2)
Track 11 accurately ripped (confidence 41) [56352A30] (AR v2)
Track 12 accurately ripped (confidence 41) [9172C493] (AR v2)
Track 13 accurately ripped (confidence 40) [02D4A7EF] (AR v2)
Track 14 accurately ripped (confidence 40) [52003D1E] (AR v2)
Track 15 accurately ripped (confidence 39) [C759DA68] (AR v2)

All tracks accurately ripped

End of status report

—- CUETools DB Plugin V2.1.6

[CTDB TOCID: 6fU2Oj7ofW7TQpkbh7cYJjUJIiM-] found
Submit result: 6fU2Oj7ofW7TQpkbh7cYJjUJIiM- has been confirmed
Track | CTDB Status
1 | (29/29) Accurately ripped
2 | (29/29) Accurately ripped
3 | (29/29) Accurately ripped
4 | (29/29) Accurately ripped
5 | (29/29) Accurately ripped
6 | (29/29) Accurately ripped
7 | (29/29) Accurately ripped
8 | (29/29) Accurately ripped
9 | (29/29) Accurately ripped
10 | (29/29) Accurately ripped
11 | (29/29) Accurately ripped
12 | (29/29) Accurately ripped
13 | (29/29) Accurately ripped
14 | (29/29) Accurately ripped
15 | (29/29) Accurately ripped

==== Log checksum 29EC6AA90358039F0EB79B0D998C1519EE878B280741CDAB59D48C05E2C7A316 ====

REM GENRE “Rock / Folk Rock / Blues Rock / Psychedelic Rock”
REM DATE 1980
REM DISCID B911990F
REM COMMENT “ExactAudioCopy v1.1”
PERFORMER “Grateful Dead”
TITLE “Go To Heaven HDCD”
FILE “Grateful Dead – Go To Heaven HDCD.flac” WAVE
TRACK 01 AUDIO
TITLE “Alabama Getaway”
PERFORMER “Grateful Dead”
INDEX 01 00:00:00
TRACK 02 AUDIO
TITLE “Far From Me”
PERFORMER “Grateful Dead”
INDEX 01 03:37:02
TRACK 03 AUDIO
TITLE “Althea”
PERFORMER “Grateful Dead”
INDEX 01 07:16:24
TRACK 04 AUDIO
TITLE “Feel Like A Stranger”
PERFORMER “Grateful Dead”
INDEX 01 14:08:49
TRACK 05 AUDIO
TITLE “Lost Sailor”
PERFORMER “Grateful Dead”
INDEX 00 19:15:00
INDEX 01 19:17:30
TRACK 06 AUDIO
TITLE “Saint of Circumstance”
PERFORMER “Grateful Dead”
INDEX 01 25:11:53
TRACK 07 AUDIO
TITLE “Antwerp’s Placebo (The Plumber)”
PERFORMER “Grateful Dead”
INDEX 01 30:51:37
TRACK 08 AUDIO
TITLE “Easy To Love You”
PERFORMER “Grateful Dead”
INDEX 01 31:30:61
TRACK 09 AUDIO
TITLE “Don’t Ease Me In”
PERFORMER “Grateful Dead”
INDEX 01 35:09:28
TRACK 10 AUDIO
TITLE “Peggy-O (Studio Outtake) / Bonus”
PERFORMER “Grateful Dead”
INDEX 00 38:22:67
INDEX 01 38:32:46
TRACK 11 AUDIO
TITLE “What’ll You Raise (Studio Outtake) / Bonus”
PERFORMER “Grateful Dead”
INDEX 00 44:21:66
INDEX 01 44:24:42
TRACK 12 AUDIO
TITLE “Jack-A-Roe (Studio Outtake) / Bonus”
PERFORMER “Grateful Dead”
INDEX 00 48:32:52
INDEX 01 48:35:17
TRACK 13 AUDIO
TITLE “Althea (Live) / Bonus”
PERFORMER “Grateful Dead”
INDEX 00 53:26:49
INDEX 01 53:30:65
TRACK 14 AUDIO
TITLE “Lost Sailor (Live) / Bonus”
PERFORMER “Grateful Dead”
INDEX 01 61:48:08
TRACK 15 AUDIO
TITLE “Saint Of Circumstance (Live) / Bonus”
PERFORMER “Grateful Dead”
INDEX 01 68:29:47


0

Publication author

offline 7 days

Chaos

3
Comments: 4Publics: 3565Registration: 02-02-2019
Spread the Download

Leave a Reply

Your email address will not be published. Required fields are marked *

Enter the text from the image below
 

This site uses Akismet to reduce spam. Learn how your comment data is processed.