Grateful Dead – Dead Set (Remastered)




No Cover available

Artist: Grateful Dead
Year: 1981/2004
Genre: Rock
Notes: Discogs
Add. Notes: Remastered
Watch Songs on: YouTube
Cover incl.: Yes
Encoder: FLAC
Bitrate: ~900 kBit/s (44.1 kHz/16 Bit/s)
Log & Cue incl.: Yes/Yes
Size: 1066,8 MB
Password: “slam” (without ” “)


All Downloads/Hosters are compatible

Download 1
KatFile.com
Turbobit.net
Rapidgator.net
FileFactory.com
Download 2
KatFile.com
Turbobit.net
Rapidgator.net
FileFactory.com

Tracklist:

CD 1
1 Samson And Delilah 5:06
2 Friend Of The Devil 7:31
3 New Minglewood Blues 4:44
4 Deal 4:34
5 Candyman 7:20
6 Little Red Rooster 4:33
7 Loser 5:55
8 Passenger 3:23
9 Feel Like A Stranger 5:44
10 Franklin's Tower 5:25
11 Rhythm Devils 4:02
12 Space 2:29
13 Fire On The Mountain 6:48
14 Greatest Story Ever Told 4:05
15 Brokedown Palace 5:47

CD 2
1 Let It Grow 9:38
2 Sugaree 9:51
3 C.C. Rider 7:17
4 Row Jimmy 10:14
5 Lazy Lightnin' 3:25
6 Supplication 5:50
7 High Time 8:40
8 Jack Straw 6:17
9 Shakedown Street 10:42
10 Not Fade Away 4:50

EAC-Log, CUE-Sheed & NFO:

Click to open spoiler
Exact Audio Copy V1.1 from 23. June 2015

EAC extraction logfile from 31. July 2015, 22:16

Grateful Dead / Dead Set HDCD 1

Used drive : PLEXTOR BD-R PX-B950SA Adapter: 1 ID: 1

Read mode : Secure
Utilize accurate stream : Yes
Defeat audio cache : Yes
Make use of C2 pointers : No

Read offset correction : 6
Overread into Lead-In and Lead-Out : No
Fill up missing offset samples with silence : Yes
Delete leading and trailing silent blocks : No
Null samples used in CRC calculations : Yes
Used interface : Native Win32 interface for Win NT & 2000

Used output format : Internal WAV Routines
Sample format : 44.100 Hz; 16 Bit; Stereo

TOC of the extracted CD

Track | Start | Length | Start sector | End sector
———————————————————
1 | 0:00.00 | 5:06.51 | 0 | 23000
2 | 5:06.51 | 7:31.13 | 23001 | 56838
3 | 12:37.64 | 4:44.25 | 56839 | 78163
4 | 17:22.14 | 4:45.46 | 78164 | 99584
5 | 22:07.60 | 7:17.61 | 99585 | 132420
6 | 29:25.46 | 4:33.01 | 132421 | 152896
7 | 33:58.47 | 5:55.15 | 152897 | 179536
8 | 39:53.62 | 3:22.46 | 179537 | 194732
9 | 43:16.33 | 5:43.49 | 194733 | 220506
10 | 49:00.07 | 5:25.13 | 220507 | 244894
11 | 54:25.20 | 4:01.58 | 244895 | 263027
12 | 58:27.03 | 2:28.48 | 263028 | 274175
13 | 60:55.51 | 6:44.05 | 274176 | 304480
14 | 67:39.56 | 4:04.51 | 304481 | 322831
15 | 71:44.32 | 5:47.40 | 322832 | 348896

Range status and errors

Selected range

Filename C:\Users\Meijin\Desktop\Lossless Galaxy ALLexxess\Grateful Dead\2004 Beyond Description 1973-1989 (12HDCD Box Set Rhino Records)\1981 Dead Set 2CD\CD1\Grateful Dead – Dead Set HDCD 1.wav

Peak level 98.8 %
Extraction speed 8.5 X
Range quality 99.9 %
Test CRC 244B2586
Copy CRC 244B2586
Copy OK

No errors occurred

AccurateRip summary

Track 1 accurately ripped (confidence 50) [E2639504] (AR v2)
Track 2 accurately ripped (confidence 51) [220109D2] (AR v2)
Track 3 accurately ripped (confidence 52) [79CC5D4C] (AR v2)
Track 4 accurately ripped (confidence 52) [0DED9A74] (AR v2)
Track 5 accurately ripped (confidence 52) [860FF159] (AR v2)
Track 6 accurately ripped (confidence 51) [F84C5AB5] (AR v2)
Track 7 accurately ripped (confidence 52) [DB83D2E0] (AR v2)
Track 8 accurately ripped (confidence 51) [7B751C30] (AR v2)
Track 9 accurately ripped (confidence 53) [A4BCCF0A] (AR v2)
Track 10 accurately ripped (confidence 53) [F75BEB69] (AR v2)
Track 11 accurately ripped (confidence 50) [4D9458A9] (AR v2)
Track 12 accurately ripped (confidence 51) [6953A407] (AR v2)
Track 13 accurately ripped (confidence 53) [02FF77CE] (AR v2)
Track 14 accurately ripped (confidence 53) [87B88CE2] (AR v2)
Track 15 accurately ripped (confidence 47) [AAADFDC8] (AR v2)

All tracks accurately ripped

End of status report

—- CUETools DB Plugin V2.1.6

[CTDB TOCID: fmz2sgQ6U7p0BHkPu64s7E4RD80-] found
Submit result: fmz2sgQ6U7p0BHkPu64s7E4RD80- has been confirmed
Track | CTDB Status
1 | (33/34) Accurately ripped
2 | (34/34) Accurately ripped
3 | (34/34) Accurately ripped
4 | (34/34) Accurately ripped
5 | (34/34) Accurately ripped
6 | (34/34) Accurately ripped
7 | (34/34) Accurately ripped
8 | (34/34) Accurately ripped
9 | (34/34) Accurately ripped
10 | (34/34) Accurately ripped
11 | (34/34) Accurately ripped
12 | (34/34) Accurately ripped
13 | (33/34) Accurately ripped
14 | (34/34) Accurately ripped
15 | (33/34) Accurately ripped

==== Log checksum EEA3748D2947FD308968E2E95FCA8C50FEA917E16BA6A387451ADCEFE2B22E7D ====

Exact Audio Copy V1.1 from 23. June 2015

EAC extraction logfile from 31. July 2015, 21:48

Grateful Dead / Dead Set HDCD 2

Used drive : PLEXTOR BD-R PX-B950SA Adapter: 1 ID: 1

Read mode : Secure
Utilize accurate stream : Yes
Defeat audio cache : Yes
Make use of C2 pointers : No

Read offset correction : 6
Overread into Lead-In and Lead-Out : No
Fill up missing offset samples with silence : Yes
Delete leading and trailing silent blocks : No
Null samples used in CRC calculations : Yes
Used interface : Native Win32 interface for Win NT & 2000

Used output format : Internal WAV Routines
Sample format : 44.100 Hz; 16 Bit; Stereo

TOC of the extracted CD

Track | Start | Length | Start sector | End sector
———————————————————
1 | 0:00.00 | 9:38.32 | 0 | 43381
2 | 9:38.32 | 9:51.11 | 43382 | 87717
3 | 19:29.43 | 7:17.24 | 87718 | 120516
4 | 26:46.67 | 10:14.03 | 120517 | 166569
5 | 37:00.70 | 3:24.50 | 166570 | 181919
6 | 40:25.45 | 5:49.37 | 181920 | 208131
7 | 46:15.07 | 8:40.16 | 208132 | 247147
8 | 54:55.23 | 6:16.49 | 247148 | 275396
9 | 61:11.72 | 10:41.72 | 275397 | 323543
10 | 71:53.69 | 4:49.61 | 323544 | 345279

Range status and errors

Selected range

Filename C:\Users\Meijin\Desktop\Lossless Galaxy ALLexxess\Grateful Dead\2004 Beyond Description 1973-1989 (12HDCD Box Set Rhino Records)\1981 Dead Set 2CD\CD2\Grateful Dead – Dead Set HDCD 2.wav

Peak level 98.8 %
Extraction speed 8.5 X
Range quality 100.0 %
Test CRC 3731325B
Copy CRC 3731325B
Copy OK

No errors occurred

AccurateRip summary

Track 1 accurately ripped (confidence 50) [410D8625] (AR v2)
Track 2 accurately ripped (confidence 53) [2D1115A2] (AR v2)
Track 3 accurately ripped (confidence 52) [5275937D] (AR v2)
Track 4 accurately ripped (confidence 50) [B262902C] (AR v2)
Track 5 accurately ripped (confidence 52) [8F1DF622] (AR v2)
Track 6 accurately ripped (confidence 51) [7B7E5517] (AR v2)
Track 7 accurately ripped (confidence 51) [D6B30452] (AR v2)
Track 8 accurately ripped (confidence 52) [2CAD3932] (AR v2)
Track 9 accurately ripped (confidence 52) [BACF469C] (AR v2)
Track 10 accurately ripped (confidence 49) [0640BA31] (AR v2)

All tracks accurately ripped

End of status report

—- CUETools DB Plugin V2.1.6

[CTDB TOCID: 1pWHlS0n2ButHfeG9I9QUF9nU08-] found
Submit result: 1pWHlS0n2ButHfeG9I9QUF9nU08- has been confirmed
Track | CTDB Status
1 | (35/35) Accurately ripped
2 | (35/35) Accurately ripped
3 | (35/35) Accurately ripped
4 | (35/35) Accurately ripped
5 | (35/35) Accurately ripped
6 | (35/35) Accurately ripped
7 | (35/35) Accurately ripped
8 | (35/35) Accurately ripped
9 | (35/35) Accurately ripped
10 | (35/35) Accurately ripped

==== Log checksum 4AA9601B61EB9A8DE25816BC164DDE06117C3876BB03F8E7219A0F7AF72CAAB7 ====

REM GENRE “Rock / Folk Rock / Blues Rock / Psychedelic Rock”
REM DATE 1981
REM DISCID E1122B0F
REM COMMENT “ExactAudioCopy v1.1”
PERFORMER “Grateful Dead”
TITLE “Dead Set HDCD 1”
FILE “Grateful Dead – Dead Set HDCD 1.flac” WAVE
TRACK 01 AUDIO
TITLE “Samson And Delilah”
PERFORMER “Grateful Dead”
INDEX 01 00:00:00
TRACK 02 AUDIO
TITLE “Friend Of The Devil”
PERFORMER “Grateful Dead”
INDEX 01 05:06:51
TRACK 03 AUDIO
TITLE “New Minglewood Blues”
PERFORMER “Grateful Dead”
INDEX 01 12:37:64
TRACK 04 AUDIO
TITLE “Deal”
PERFORMER “Grateful Dead”
INDEX 01 17:22:14
TRACK 05 AUDIO
TITLE “Candyman”
PERFORMER “Grateful Dead”
INDEX 01 22:07:60
TRACK 06 AUDIO
TITLE “Little Red Rooster”
PERFORMER “Grateful Dead”
INDEX 01 29:25:46
TRACK 07 AUDIO
TITLE “Loser”
PERFORMER “Grateful Dead”
INDEX 01 33:58:47
TRACK 08 AUDIO
TITLE “Passenger”
PERFORMER “Grateful Dead”
INDEX 01 39:53:62
TRACK 09 AUDIO
TITLE “Feel Like A Stranger”
PERFORMER “Grateful Dead”
INDEX 01 43:16:33
TRACK 10 AUDIO
TITLE “Franklin’s Tower”
PERFORMER “Grateful Dead”
INDEX 01 49:00:07
TRACK 11 AUDIO
TITLE “Rhythm Devils”
PERFORMER “Grateful Dead”
INDEX 01 54:25:20
TRACK 12 AUDIO
TITLE “Space”
PERFORMER “Grateful Dead”
INDEX 01 58:27:03
TRACK 13 AUDIO
TITLE “Fire On The Mountain”
PERFORMER “Grateful Dead”
INDEX 01 60:55:51
TRACK 14 AUDIO
TITLE “Greatest Story Ever Told”
PERFORMER “Grateful Dead”
INDEX 01 67:39:56
TRACK 15 AUDIO
TITLE “Brokedown Palace”
PERFORMER “Grateful Dead”
INDEX 01 71:44:32

REM GENRE “Rock / Folk Rock / Blues Rock / Psychedelic Rock”
REM DATE 1981
REM DISCID 8B11FB0A
REM COMMENT “ExactAudioCopy v1.1”
PERFORMER “Grateful Dead”
TITLE “Dead Set HDCD 2”
FILE “Grateful Dead – Dead Set HDCD 2.flac” WAVE
TRACK 01 AUDIO
TITLE “Let It Grow”
PERFORMER “Grateful Dead”
INDEX 01 00:00:00
TRACK 02 AUDIO
TITLE “Sugaree”
PERFORMER “Grateful Dead”
INDEX 01 09:38:32
TRACK 03 AUDIO
TITLE “C. C. Rider”
PERFORMER “Grateful Dead”
INDEX 01 19:29:43
TRACK 04 AUDIO
TITLE “Row Jimmy”
PERFORMER “Grateful Dead”
INDEX 01 26:46:67
TRACK 05 AUDIO
TITLE “Lazy Lightnin'”
PERFORMER “Grateful Dead”
INDEX 01 37:00:70
TRACK 06 AUDIO
TITLE “Supplication”
PERFORMER “Grateful Dead”
INDEX 01 40:25:45
TRACK 07 AUDIO
TITLE “High Time”
PERFORMER “Grateful Dead”
INDEX 01 46:15:07
TRACK 08 AUDIO
TITLE “Jack Straw”
PERFORMER “Grateful Dead”
INDEX 01 54:55:23
TRACK 09 AUDIO
TITLE “Shakedown Street”
PERFORMER “Grateful Dead”
INDEX 01 61:11:72
TRACK 10 AUDIO
TITLE “Not Fade Away”
PERFORMER “Grateful Dead”
INDEX 01 71:53:69


Leave a Reply

Your email address will not be published. Required fields are marked *

Enter the text from the image below
 

This site uses Akismet to reduce spam. Learn how your comment data is processed.