Grateful Dead – Birth Of The Dead (Remastered)




No Cover available

Artist: Grateful Dead
Year: 2001
Genre: Rock
Notes: Discogs
Add. Notes: Remastered
Watch Songs on: YouTube
Cover incl.: Yes
Encoder: FLAC
Bitrate: ~800 kBit/s (44.1 kHz/16 Bit/s)
Log & Cue incl.: Yes/Yes
Size: 778,3 MB
Password: “slam” (without ” “)


All Downloads/Hosters are compatible

Download 1
KatFile.com
Turbobit.net
Rapidgator.net
FileFactory.com
Download 2
KatFile.com
Turbobit.net
Rapidgator.net
FileFactory.com

Tracklist:

Birth Of The Dead (The Studio Sides)
The Autumn Sessions
1-1 Early Morning Rain 3:19
1-2 I Know You Rider 2:39
1-3 Mindbender (Confusion's Prince) 2:39
1-4 The Only Time Is Now 2:21
1-5 Caution (Do Not Stop On Tracks) 3:1:4
1-6 Can't Come Down 2:59
The Scorpio Sessions
1-7 Stealin' (Instrumental) 2:37
1-8 Stealin' (With Vocals) 2:33
1-9 Don't Ease Me In (Instrumental) 1:58
1-10 Don't Ease Me In (With Vocals) 1:59
1-11 You Don't Have To Ask 3:32
1-12 Tastebud (Instrumental) 7:00
1-13 Tastebud (With Vocals) 4:31
1-14 I Know You Rider 2:33
1-15 Cold Rain And Snow (Instrumental) 3:12
1-16 Cold Rain And Snow (With Vocals) 3:12
The Hendricks Session
1-17 Fire In The City 3:19

Birth Of The Dead (The Live Sides)
2-1 Viola Lee Blues 9:39
2-2 Don't Ease Me In 2:44
2-3 Pain In My Heart 4:25
2-4 Sitting On Top Of The World 3:52
2-5 It's All Over Now, Baby Blue 5:13
2-6 I'm A King Bee 8:53
2-7 Big Boss Man 5:11
2-8 Standing On The Corner 3:46
2-9 In The Pines 4:55
2-10 Nobody's Fault But Mine 4:16
2-11 Next Time You See Me 2:48
2-12 One Kind Favour 3:45
2-13 He Was A Friend Of Mine 4:46
2-14 Keep Rolling By 7:57

EAC-Log, CUE-Sheed & NFO:

Click to open spoiler
Exact Audio Copy V1.1 from 23. June 2015

EAC extraction logfile from 2. August 2015, 10:52

Grateful Dead / Birth Of The Dead HDCD 1 Studio

Used drive : PLEXTOR BD-R PX-B950SA Adapter: 1 ID: 1

Read mode : Secure
Utilize accurate stream : Yes
Defeat audio cache : Yes
Make use of C2 pointers : No

Read offset correction : 6
Overread into Lead-In and Lead-Out : No
Fill up missing offset samples with silence : Yes
Delete leading and trailing silent blocks : No
Null samples used in CRC calculations : Yes
Used interface : Native Win32 interface for Win NT & 2000

Used output format : Internal WAV Routines
Sample format : 44.100 Hz; 16 Bit; Stereo

TOC of the extracted CD

Track | Start | Length | Start sector | End sector
———————————————————
1 | 0:00.32 | 3:22.28 | 32 | 15209
2 | 3:22.60 | 2:41.45 | 15210 | 27329
3 | 6:04.30 | 2:41.62 | 27330 | 39466
4 | 8:46.17 | 2:24.23 | 39467 | 50289
5 | 11:10.40 | 3:17.40 | 50290 | 65104
6 | 14:28.05 | 3:04.22 | 65105 | 78926
7 | 17:32.27 | 2:40.00 | 78927 | 90926
8 | 20:12.27 | 2:36.40 | 90927 | 102666
9 | 22:48.67 | 2:01.28 | 102667 | 111769
10 | 24:50.20 | 2:02.47 | 111770 | 120966
11 | 26:52.67 | 3:35.43 | 120967 | 137134
12 | 30:28.35 | 7:04.55 | 137135 | 168989
13 | 37:33.15 | 4:35.17 | 168990 | 189631
14 | 42:08.32 | 2:36.43 | 189632 | 201374
15 | 44:45.00 | 3:15.40 | 201375 | 216039
16 | 48:00.40 | 3:17.42 | 216040 | 230856
17 | 51:18.07 | 3:19.33 | 230857 | 245814

Range status and errors

Selected range

Filename C:\Users\Meijin\Desktop\Lossless Galaxy ALLexxess\Grateful Dead\2001 The Golden Road 1965-1973 (12HDCD Box Set Rhino Records)\2001 Birth Of The Dead 2CD\CD1\Grateful Dead – Birth Of The Dead HDCD 1 Studio.wav

Peak level 98.8 %
Extraction speed 7.2 X
Range quality 99.9 %
Test CRC BAEC9C87
Copy CRC BAEC9C87
Copy OK

No errors occurred

AccurateRip summary

Track 1 accurately ripped (confidence 70) [2BCFDAB6] (AR v2)
Track 2 accurately ripped (confidence 70) [4FFE5EC4] (AR v2)
Track 3 accurately ripped (confidence 70) [8BAC1B72] (AR v2)
Track 4 accurately ripped (confidence 70) [611BE6DA] (AR v2)
Track 5 accurately ripped (confidence 69) [DCE73CA3] (AR v2)
Track 6 accurately ripped (confidence 70) [7B0283D1] (AR v2)
Track 7 accurately ripped (confidence 70) [4C5A6900] (AR v2)
Track 8 accurately ripped (confidence 69) [CFCB0294] (AR v2)
Track 9 accurately ripped (confidence 70) [C5351616] (AR v2)
Track 10 accurately ripped (confidence 70) [6A46B3F2] (AR v2)
Track 11 accurately ripped (confidence 70) [693EE60C] (AR v2)
Track 12 accurately ripped (confidence 70) [774097E4] (AR v2)
Track 13 accurately ripped (confidence 70) [67FECAF3] (AR v2)
Track 14 accurately ripped (confidence 68) [7FD11542] (AR v2)
Track 15 accurately ripped (confidence 70) [88C73E3F] (AR v2)
Track 16 accurately ripped (confidence 68) [442C66A0] (AR v2)
Track 17 accurately ripped (confidence 68) [4CFCCA96] (AR v2)

All tracks accurately ripped

End of status report

—- CUETools DB Plugin V2.1.6

[CTDB TOCID: xadXhJOOikY7TeCoq2UjA558HO0-] found
Submit result: xadXhJOOikY7TeCoq2UjA558HO0- has been confirmed
Track | CTDB Status
1 | (14/15) Accurately ripped
2 | (13/15) Accurately ripped
3 | (14/15) Accurately ripped
4 | (14/15) Accurately ripped
5 | (14/15) Accurately ripped
6 | (14/15) Accurately ripped
7 | (14/15) Accurately ripped
8 | (14/15) Accurately ripped
9 | (14/15) Accurately ripped
10 | (14/15) Accurately ripped
11 | (14/15) Accurately ripped
12 | (14/15) Accurately ripped
13 | (14/15) Accurately ripped
14 | (14/15) Accurately ripped
15 | (14/15) Accurately ripped
16 | (14/15) Accurately ripped
17 | (14/15) Accurately ripped

==== Log checksum 7866EFE772F87C962B3315EB8C0B10CB227E21744FB6E1FB87F06A4833B6841E ====

Exact Audio Copy V1.1 from 23. June 2015

EAC extraction logfile from 2. August 2015, 10:14

Grateful Dead / Birth Of The Dead HDCD 2 Live

Used drive : PLEXTOR BD-R PX-B950SA Adapter: 1 ID: 1

Read mode : Secure
Utilize accurate stream : Yes
Defeat audio cache : Yes
Make use of C2 pointers : No

Read offset correction : 6
Overread into Lead-In and Lead-Out : No
Fill up missing offset samples with silence : Yes
Delete leading and trailing silent blocks : No
Null samples used in CRC calculations : Yes
Used interface : Native Win32 interface for Win NT & 2000

Used output format : Internal WAV Routines
Sample format : 44.100 Hz; 16 Bit; Stereo

TOC of the extracted CD

Track | Start | Length | Start sector | End sector
———————————————————
1 | 0:00.32 | 9:39.33 | 32 | 43489
2 | 9:39.65 | 2:43.55 | 43490 | 55769
3 | 12:23.45 | 4:24.55 | 55770 | 75624
4 | 16:48.25 | 3:51.60 | 75625 | 93009
5 | 20:40.10 | 5:12.55 | 93010 | 116464
6 | 25:52.65 | 8:52.67 | 116465 | 156431
7 | 34:45.57 | 5:11.08 | 156432 | 179764
8 | 39:56.65 | 3:46.25 | 179765 | 196739
9 | 43:43.15 | 4:55.15 | 196740 | 218879
10 | 48:38.30 | 4:15.65 | 218880 | 238069
11 | 52:54.20 | 2:47.57 | 238070 | 250651
12 | 55:42.02 | 3:44.63 | 250652 | 267514
13 | 59:26.65 | 4:45.55 | 267515 | 288944
14 | 64:12.45 | 7:57.10 | 288945 | 324729

Range status and errors

Selected range

Filename C:\Users\Meijin\Desktop\Lossless Galaxy ALLexxess\Grateful Dead\2001 The Golden Road 1965-1973 (12HDCD Box Set Rhino Records)\2001 Birth Of The Dead 2CD\CD2\Grateful Dead – Birth Of The Dead HDCD 2 Live.wav

Peak level 98.8 %
Extraction speed 8.5 X
Range quality 100.0 %
Test CRC 23C45883
Copy CRC 23C45883
Copy OK

No errors occurred

AccurateRip summary

Track 1 accurately ripped (confidence 69) [87D4B58D] (AR v2)
Track 2 accurately ripped (confidence 70) [24CA5D8C] (AR v2)
Track 3 accurately ripped (confidence 69) [B43581EC] (AR v2)
Track 4 accurately ripped (confidence 69) [56D12658] (AR v2)
Track 5 accurately ripped (confidence 69) [304A1702] (AR v2)
Track 6 accurately ripped (confidence 70) [19EBA25A] (AR v2)
Track 7 accurately ripped (confidence 70) [B602D872] (AR v2)
Track 8 accurately ripped (confidence 70) [DD0B050A] (AR v2)
Track 9 accurately ripped (confidence 70) [88776653] (AR v2)
Track 10 accurately ripped (confidence 70) [6B583AB0] (AR v2)
Track 11 accurately ripped (confidence 70) [A1675534] (AR v2)
Track 12 accurately ripped (confidence 70) [1BE94F0C] (AR v2)
Track 13 accurately ripped (confidence 69) [028D8FE1] (AR v2)
Track 14 accurately ripped (confidence 67) [EFB367E0] (AR v2)

All tracks accurately ripped

End of status report

—- CUETools DB Plugin V2.1.6

[CTDB TOCID: JyS_aD5BbELXdtC4I7mAEVp0OKk-] found
Submit result: JyS_aD5BbELXdtC4I7mAEVp0OKk- has been confirmed
Track | CTDB Status
1 | (11/13) Accurately ripped
2 | (12/13) Accurately ripped
3 | (12/13) Accurately ripped
4 | (12/13) Accurately ripped
5 | (12/13) Accurately ripped
6 | (12/13) Accurately ripped
7 | (12/13) Accurately ripped
8 | (12/13) Accurately ripped
9 | (12/13) Accurately ripped
10 | (12/13) Accurately ripped
11 | (12/13) Accurately ripped
12 | (12/13) Accurately ripped
13 | (12/13) Accurately ripped
14 | (12/13) Accurately ripped, or (1/13) differs in 1044 samples @00:19:61-00:19:62

==== Log checksum 824E437531CC86A6C7E380BCFF34FA326632BC5E847C0CA6ABFAD8F741BD3431 ====

REM GENRE “Rock / Folk Rock / Blues Rock / Psychedelic Rock”
REM DATE 1965
REM DISCID D70CCD11
REM COMMENT “ExactAudioCopy v1.1”
PERFORMER “Grateful Dead”
TITLE “Birth Of The Dead HDCD 1 Studio”
FILE “Grateful Dead – Birth Of The Dead HDCD 1 Studio.flac” WAVE
TRACK 01 AUDIO
TITLE “Early Morning Rain / Autumn Sessions”
PERFORMER “Grateful Dead”
INDEX 00 00:00:00
INDEX 01 00:00:32
TRACK 02 AUDIO
TITLE “I Know You Rider / Autumn Sessions”
PERFORMER “Grateful Dead”
INDEX 00 03:20:15
INDEX 01 03:22:60
TRACK 03 AUDIO
TITLE “Mindbender (Confusion’s Prince) / Autumn Sessions”
PERFORMER “Grateful Dead”
INDEX 00 06:01:70
INDEX 01 06:04:30
TRACK 04 AUDIO
TITLE “The Only Time Is Now / Autumn Sessions”
PERFORMER “Grateful Dead”
INDEX 00 08:43:45
INDEX 01 08:46:17
TRACK 05 AUDIO
TITLE “Caution (Do Not Stop On Tracks) / Autumn Sessions”
PERFORMER “Grateful Dead”
INDEX 00 11:07:20
INDEX 01 11:10:40
TRACK 06 AUDIO
TITLE “Can’t Come Down / Autumn Sessions”
PERFORMER “Grateful Dead”
INDEX 00 14:25:10
INDEX 01 14:28:05
TRACK 07 AUDIO
TITLE “Stealin’ (Instrumental) / Scorpio Sessions”
PERFORMER “Grateful Dead”
INDEX 00 17:27:65
INDEX 01 17:32:27
TRACK 08 AUDIO
TITLE “Stealin’ (With Vocals) / Scorpio Sessions”
PERFORMER “Grateful Dead”
INDEX 00 20:09:67
INDEX 01 20:12:27
TRACK 09 AUDIO
TITLE “Don’t Ease Me In (Instrumental) / Scorpio Sessions”
PERFORMER “Grateful Dead”
INDEX 00 22:45:37
INDEX 01 22:48:67
TRACK 10 AUDIO
TITLE “Don’t Ease Me In (With Vocals) / Scorpio Sessions”
PERFORMER “Grateful Dead”
INDEX 00 24:47:55
INDEX 01 24:50:20
TRACK 11 AUDIO
TITLE “You Don’t Have To Ask / Scorpio Sessions”
PERFORMER “Grateful Dead”
INDEX 00 26:49:17
INDEX 01 26:52:67
TRACK 12 AUDIO
TITLE “Tastebud (Instrumental) / Scorpio Sessions”
PERFORMER “Grateful Dead”
INDEX 00 30:24:62
INDEX 01 30:28:35
TRACK 13 AUDIO
TITLE “Tastebud (With Vocals) / Scorpio Sessions”
PERFORMER “Grateful Dead”
INDEX 00 37:29:07
INDEX 01 37:33:15
TRACK 14 AUDIO
TITLE “I Know You Rider / Scorpio Sessions”
PERFORMER “Grateful Dead”
INDEX 00 42:04:55
INDEX 01 42:08:32
TRACK 15 AUDIO
TITLE “Cold Rain And Snow (Instrumental) / Scorpio Sessions”
PERFORMER “Grateful Dead”
INDEX 00 44:41:27
INDEX 01 44:45:00
TRACK 16 AUDIO
TITLE “Cold Rain And Snow (With Vocals) / Scorpio Sessions”
PERFORMER “Grateful Dead”
INDEX 00 47:57:20
INDEX 01 48:00:40
TRACK 17 AUDIO
TITLE “Fire In The City (With Jon Hendricks) / Hendricks Session”
PERFORMER “Grateful Dead”
INDEX 00 51:12:37
INDEX 01 51:18:07

REM GENRE “Rock / Folk Rock / Blues Rock / Psychedelic Rock”
REM DATE 2001
REM DISCID C610E90E
REM COMMENT “ExactAudioCopy v1.1”
PERFORMER “Grateful Dead”
TITLE “Birth Of The Dead HDCD 2 Live”
FILE “Grateful Dead – Birth Of The Dead HDCD 2 Live.flac” WAVE
TRACK 01 AUDIO
TITLE “Viola Lee Blues”
PERFORMER “Grateful Dead”
INDEX 00 00:00:00
INDEX 01 00:00:32
TRACK 02 AUDIO
TITLE “Don’t Ease Me In”
PERFORMER “Grateful Dead”
INDEX 01 09:39:65
TRACK 03 AUDIO
TITLE “Pain In My Heart”
PERFORMER “Grateful Dead”
INDEX 01 12:23:45
TRACK 04 AUDIO
TITLE “Sitting On Top Of The World”
PERFORMER “Grateful Dead”
INDEX 01 16:48:25
TRACK 05 AUDIO
TITLE “It’s All Over Now, Baby Blue”
PERFORMER “Grateful Dead”
INDEX 01 20:40:10
TRACK 06 AUDIO
TITLE “I’m A King Bee”
PERFORMER “Grateful Dead”
INDEX 01 25:52:65
TRACK 07 AUDIO
TITLE “Big Boss Man”
PERFORMER “Grateful Dead”
INDEX 01 34:45:57
TRACK 08 AUDIO
TITLE “Standing On The Corner”
PERFORMER “Grateful Dead”
INDEX 01 39:56:65
TRACK 09 AUDIO
TITLE “In The Pines”
PERFORMER “Grateful Dead”
INDEX 01 43:43:15
TRACK 10 AUDIO
TITLE “Nobody’s Fault But Mine”
PERFORMER “Grateful Dead”
INDEX 01 48:38:30
TRACK 11 AUDIO
TITLE “Next Time You See Me”
PERFORMER “Grateful Dead”
INDEX 01 52:54:20
TRACK 12 AUDIO
TITLE “One Kind Favor”
PERFORMER “Grateful Dead”
INDEX 01 55:42:02
TRACK 13 AUDIO
TITLE “He Was A Friend Of Mine”
PERFORMER “Grateful Dead”
INDEX 01 59:26:65
TRACK 14 AUDIO
TITLE “Keep Rolling By”
PERFORMER “Grateful Dead”
INDEX 01 64:12:45


Leave a Reply

Your email address will not be published. Required fields are marked *

Enter the text from the image below
 

This site uses Akismet to reduce spam. Learn how your comment data is processed.