Grateful Dead – Aoxomoxoa (Remastered)




[Total: 0    Average: 0/5]

Artist: Grateful Dead
Year: 1969/2003
Genre: Rock
Notes: Discogs
Add. Notes: Remastered
Cover incl.: Yes
Encoder: FLAC
Bitrate: ~800 kBit/s (44.1 kHz/16 Bit/s)
Log & Cue incl.: Yes
Size: 537,9 MB
Password: “slam” (without ” “)


All Downloads/Hosters are compatible

Download 1
KatFile.com
Turbobit.net
FileFactory.com
Rapidgator.net
Download 2
KatFile.com
Turbobit.net
FileFactory.com
Rapidgator.net
Download 3
KatFile.com
Turbobit.net
FileFactory.com
Rapidgator.net

Tracklist:

1 St. Stephen 4:28
2 Dupree's Diamond Blues 3:34
3 Rosemary 2:00
4 Doin' That Rag 4:44
5 Mountains Of The Moon 4:05
6 China Cat Sunflower 3:42
7 What's Become Of The Baby 8:13
8 Cosmic Charlie 5:44

Bonus Material
9 Clementine Jam 10:51
10 Nobody's Spoonful Jam 10:10
11 The Eleven Jam 15:05
12 Cosmic Charlie (live) 6:48

EAC-Log, CUE-Sheed & NFO:

Click to open spoiler
Exact Audio Copy V1.1 from 23. June 2015

EAC extraction logfile from 1. August 2015, 19:50

Grateful Dead / Aoxomoxoa HDCD

Used drive : PLEXTOR BD-R PX-B950SA Adapter: 1 ID: 1

Read mode : Secure
Utilize accurate stream : Yes
Defeat audio cache : Yes
Make use of C2 pointers : No

Read offset correction : 6
Overread into Lead-In and Lead-Out : No
Fill up missing offset samples with silence : Yes
Delete leading and trailing silent blocks : No
Null samples used in CRC calculations : Yes
Used interface : Native Win32 interface for Win NT & 2000

Used output format : Internal WAV Routines
Sample format : 44.100 Hz; 16 Bit; Stereo

TOC of the extracted CD

Track | Start | Length | Start sector | End sector
———————————————————
1 | 0:00.32 | 4:27.68 | 32 | 20124
2 | 4:28.25 | 3:34.22 | 20125 | 36196
3 | 8:02.47 | 2:00.13 | 36197 | 45209
4 | 10:02.60 | 4:44.35 | 45210 | 66544
5 | 14:47.20 | 4:04.60 | 66545 | 84904
6 | 18:52.05 | 3:42.15 | 84905 | 101569
7 | 22:34.20 | 8:13.05 | 101570 | 138549
8 | 30:47.25 | 5:44.07 | 138550 | 164356
9 | 36:31.32 | 10:51.00 | 164357 | 213181
10 | 47:22.32 | 10:09.68 | 213182 | 258924
11 | 57:32.25 | 15:05.12 | 258925 | 326811
12 | 72:37.37 | 6:47.43 | 326812 | 357379

Range status and errors

Selected range

Filename C:\Users\Meijin\Desktop\Lossless Galaxy ALLexxess\Grateful Dead\2001 The Golden Road 1965-1973 (12HDCD Box Set Rhino Records)\1969 Aoxomoxoa\Grateful Dead – Aoxomoxoa HDCD.wav

Peak level 98.8 %
Extraction speed 7.8 X
Range quality 99.9 %
Test CRC FA13A98C
Copy CRC FA13A98C
Copy OK

No errors occurred

AccurateRip summary

Track 1 accurately ripped (confidence 85) [3ABDFC71] (AR v2)
Track 2 accurately ripped (confidence 88) [36C902E7] (AR v2)
Track 3 accurately ripped (confidence 87) [9EC18175] (AR v2)
Track 4 accurately ripped (confidence 88) [534C5655] (AR v2)
Track 5 accurately ripped (confidence 87) [1A20AD8A] (AR v2)
Track 6 accurately ripped (confidence 88) [67EAE7EA] (AR v2)
Track 7 accurately ripped (confidence 85) [7795051D] (AR v2)
Track 8 accurately ripped (confidence 86) [599C47C6] (AR v2)
Track 9 accurately ripped (confidence 85) [4AD00081] (AR v2)
Track 10 accurately ripped (confidence 85) [A680B6B3] (AR v2)
Track 11 accurately ripped (confidence 86) [DFEE7DA2] (AR v2)
Track 12 accurately ripped (confidence 82) [550E5922] (AR v2)

All tracks accurately ripped

End of status report

—- CUETools DB Plugin V2.1.6

[CTDB TOCID: 6mMPmawTyLWVQ4fgSm0bSKk2gEI-] found
Submit result: 6mMPmawTyLWVQ4fgSm0bSKk2gEI- has been confirmed
Track | CTDB Status
1 | (28/28) Accurately ripped
2 | (28/28) Accurately ripped
3 | (27/28) Accurately ripped, or (1/28) differs in 17 samples @00:00:30
4 | (27/28) Accurately ripped, or (1/28) differs in 13 samples @00:00:30
5 | (27/28) Accurately ripped, or (1/28) differs in 11 samples @00:00:30
6 | (28/28) Accurately ripped
7 | (27/28) Accurately ripped, or (1/28) differs in 12 samples @00:00:30
8 | (27/28) Accurately ripped, or (1/28) differs in 13 samples @00:00:30
9 | (27/28) Accurately ripped, or (1/28) differs in 5 samples @00:00:30
10 | (27/28) Accurately ripped, or (1/28) differs in 13 samples @00:00:30
11 | (27/28) Accurately ripped, or (1/28) differs in 17 samples @00:00:30
12 | (27/28) Accurately ripped

==== Log checksum C4F84704E0A07E98D7611A5C90A9FA5864B62C1F24D525B1BB1DA36211B5AACF ====

REM GENRE “Rock / Folk Rock / Blues Rock / Psychedelic Rock”
REM DATE 1969
REM DISCID B2129D0C
REM COMMENT “ExactAudioCopy v1.1”
PERFORMER “Grateful Dead”
TITLE “Aoxomoxoa HDCD”
FILE “Grateful Dead – Aoxomoxoa HDCD.flac” WAVE
TRACK 01 AUDIO
TITLE “St. Stephen”
PERFORMER “Grateful Dead”
INDEX 00 00:00:00
INDEX 01 00:00:32
TRACK 02 AUDIO
TITLE “Dupree’s Diamond Blues”
PERFORMER “Grateful Dead”
INDEX 00 04:26:37
INDEX 01 04:28:25
TRACK 03 AUDIO
TITLE “Rosemary”
PERFORMER “Grateful Dead”
INDEX 00 08:00:32
INDEX 01 08:02:47
TRACK 04 AUDIO
TITLE “Doin’ That Rag”
PERFORMER “Grateful Dead”
INDEX 00 10:01:10
INDEX 01 10:02:60
TRACK 05 AUDIO
TITLE “Mountains of the Moon”
PERFORMER “Grateful Dead”
INDEX 00 14:44:15
INDEX 01 14:47:20
TRACK 06 AUDIO
TITLE “China Cat Sunflower”
PERFORMER “Grateful Dead”
INDEX 00 18:49:37
INDEX 01 18:52:05
TRACK 07 AUDIO
TITLE “What’s Become of the Baby”
PERFORMER “Grateful Dead”
INDEX 00 22:32:12
INDEX 01 22:34:20
TRACK 08 AUDIO
TITLE “Cosmic Charlie”
PERFORMER “Grateful Dead”
INDEX 00 30:46:22
INDEX 01 30:47:25
TRACK 09 AUDIO
TITLE “Clementine Jam (Live) / Bonus”
PERFORMER “Grateful Dead”
INDEX 00 36:16:62
INDEX 01 36:31:32
TRACK 10 AUDIO
TITLE “Nobody’s Spoonful Jam (Live) / Bonus”
PERFORMER “Grateful Dead”
INDEX 00 47:17:27
INDEX 01 47:22:32
TRACK 11 AUDIO
TITLE “The Eleven Jam (Live) / Bonus”
PERFORMER “Grateful Dead”
INDEX 00 57:27:10
INDEX 01 57:32:25
TRACK 12 AUDIO
TITLE “Cosmic Charlie (Live) / Bonus”
PERFORMER “Grateful Dead”
INDEX 00 72:32:32
INDEX 01 72:37:37


Spread the Download

Leave a Reply

Your email address will not be published. Required fields are marked *

Enter the text from the image below
 

This site uses Akismet to reduce spam. Learn how your comment data is processed.