Grateful Dead – Anthem Of The Sun (Remastered)




Artist: Grateful Dead
Year: 1968/2003
Genre: Rock
Notes: Discogs
Add. Notes: Remastered
Cover incl.: Yes
Encoder: FLAC
Bitrate: ~800 kBit/s (44.1 kHz/16 Bit/s)
Log & Cue incl.: Yes
Size: 533,4 MB
Password: “slam” (without ” “)


All Downloads/Hosters are compatible

Download 1
KatFile.com
Turbobit.net
FileFactory.com
Rapidgator.net
Download 2
KatFile.com
Turbobit.net
FileFactory.com
Rapidgator.net

Tracklist:

That's It For The Other One (7:40)
1.I Cryptical Envelopment 
1.II Quadlibet For Tender Feet 
1.III The Faster We Go, The Rounder We Get 
1.IV We Leave The Castle 
2 New Potato Caboose 8:25
3 Born Cross-Eyed 2:07
4 Alligator 11:20
5 Caution (Do Not Stop On Tracks) 9:50

Bonus Material
6 Alligator (Live) 18:43
7 Caution (Do Not Stop On Tracks) (Live) 11:38
8.1 Feedback (Live) 4:01
8.2 (no audio) 2:57
9 Born Cross-Eyed (Single Version) [Hidden Track] 2:55

EAC-Log, CUE-Sheed & NFO:

Click to open spoiler
Exact Audio Copy V1.1 from 23. June 2015

EAC extraction logfile from 1. August 2015, 20:30

Grateful Dead / Anthem Of The Sun HDCD

Used drive : PLEXTOR BD-R PX-B950SA Adapter: 1 ID: 1

Read mode : Secure
Utilize accurate stream : Yes
Defeat audio cache : Yes
Make use of C2 pointers : No

Read offset correction : 6
Overread into Lead-In and Lead-Out : No
Fill up missing offset samples with silence : Yes
Delete leading and trailing silent blocks : No
Null samples used in CRC calculations : Yes
Used interface : Native Win32 interface for Win NT & 2000

Used output format : Internal WAV Routines
Sample format : 44.100 Hz; 16 Bit; Stereo

TOC of the extracted CD

Track | Start | Length | Start sector | End sector
———————————————————
1 | 0:00.32 | 7:40.10 | 32 | 34541
2 | 7:40.42 | 8:26.00 | 34542 | 72491
3 | 16:06.42 | 2:07.10 | 72492 | 82026
4 | 18:13.52 | 11:20.30 | 82027 | 133056
5 | 29:34.07 | 9:50.73 | 133057 | 177379
6 | 39:25.05 | 18:43.37 | 177380 | 261641
7 | 58:08.42 | 11:38.25 | 261642 | 314016
8 | 69:46.67 | 6:58.33 | 314017 | 345399
9 | 76:45.25 | 2:55.27 | 345400 | 358551

Range status and errors

Selected range

Filename C:\Users\Meijin\Desktop\Lossless Galaxy ALLexxess\Grateful Dead\2001 The Golden Road 1965-1973 (12HDCD Box Set Rhino Records)\1968 Anthem Of The Sun\Grateful Dead – Anthem Of The Sun HDCD.wav

Peak level 98.8 %
Extraction speed 8.7 X
Range quality 100.0 %
Test CRC 7B57BFE1
Copy CRC 7B57BFE1
Copy OK

No errors occurred

AccurateRip summary

Track 1 accurately ripped (confidence 100) [8A4CFCF5] (AR v2)
Track 2 accurately ripped (confidence 103) [9F9B2720] (AR v2)
Track 3 accurately ripped (confidence 103) [C5FA7E1B] (AR v2)
Track 4 accurately ripped (confidence 104) [65C75597] (AR v2)
Track 5 accurately ripped (confidence 102) [632B2A7D] (AR v2)
Track 6 accurately ripped (confidence 102) [6167CFED] (AR v2)
Track 7 accurately ripped (confidence 102) [DD9E317C] (AR v2)
Track 8 accurately ripped (confidence 98) [B4F7A79B] (AR v2)
Track 9 accurately ripped (confidence 95) [8ADE6478] (AR v2)

All tracks accurately ripped

End of status report

—- CUETools DB Plugin V2.1.6

[CTDB TOCID: C191Um_6YiYoGqOOBYkHesoEjmM-] found
Submit result: C191Um_6YiYoGqOOBYkHesoEjmM- has been confirmed
Track | CTDB Status
1 | (32/34) Accurately ripped
2 | (32/34) Accurately ripped, or (1/34) differs in 40 samples @00:00:30
3 | (32/34) Accurately ripped, or (1/34) differs in 40 samples @00:00:30
4 | (32/34) Accurately ripped, or (1/34) differs in 10 samples @00:00:30
5 | (32/34) Accurately ripped, or (1/34) differs in 40 samples @00:00:30
6 | (32/34) Accurately ripped, or (1/34) differs in 10 samples @00:00:30
7 | (30/34) Accurately ripped, or (1/34) differs in 40 samples @00:00:30
8 | (31/34) Accurately ripped, or (1/34) differs in 40 samples @00:00:30
9 | (31/34) Accurately ripped, or (1/34) differs in 15 samples @00:00:30

==== Log checksum EBB32193B0F5AF022F4E40D2E17C2453F8599AE95908FAB173CEA46928BDB47E ====

REM GENRE “Rock / Folk Rock / Blues Rock / Psychedelic Rock”
REM DATE 1968
REM DISCID 9112AC09
REM COMMENT “ExactAudioCopy v1.1”
PERFORMER “Grateful Dead”
TITLE “Anthem Of The Sun HDCD”
FILE “Grateful Dead – Anthem Of The Sun HDCD.flac” WAVE
TRACK 01 AUDIO
TITLE “That’s It For The Other One”
PERFORMER “Grateful Dead”
INDEX 00 00:00:00
INDEX 01 00:00:32
TRACK 02 AUDIO
TITLE “New Potato Caboose”
PERFORMER “Grateful Dead”
INDEX 01 07:40:42
TRACK 03 AUDIO
TITLE “Born Cross-Eyed”
PERFORMER “Grateful Dead”
INDEX 01 16:06:42
TRACK 04 AUDIO
TITLE “Alligator”
PERFORMER “Grateful Dead”
INDEX 00 18:10:62
INDEX 01 18:13:52
TRACK 05 AUDIO
TITLE “Caution (Do Not Stop On Tracks)”
PERFORMER “Grateful Dead”
INDEX 01 29:34:07
TRACK 06 AUDIO
TITLE “Alligator (Live) / Bonus”
PERFORMER “Grateful Dead”
INDEX 00 39:10:67
INDEX 01 39:25:05
TRACK 07 AUDIO
TITLE “Caution (Do Not Stop On Tracks) (Live) / Bonus”
PERFORMER “Grateful Dead”
INDEX 01 58:08:42
TRACK 08 AUDIO
TITLE “Feedback (Live) / Bonus”
PERFORMER “Grateful Dead”
INDEX 01 69:46:67
TRACK 09 AUDIO
TITLE “Born Cross-Eyed (Single Version) / Hidden Track”
PERFORMER “Grateful Dead”
INDEX 00 73:48:42
INDEX 01 76:45:25


Leave a Reply

Your email address will not be published. Required fields are marked *

Enter the text from the image below
 

This site uses Akismet to reduce spam. Learn how your comment data is processed.