Grateful Dead – American Beauty (Remastered)




Artist: Grateful Dead
Year: 1970/2003
Genre: Rock
Notes: Discogs
Add. Notes: Remastered
Cover incl.: Yes
Encoder: FLAC
Bitrate: ~800 kBit/s (44.1 kHz/16 Bit/s)
Log & Cue incl.: Yes/Yes
Size: 536,5 MB
Password: “slam” (without ” “)


All Downloads/Hosters are compatible

Download 1
KatFile.com
Turbobit.net
FileFactory.com
Rapidgator.net
Download 2
KatFile.com
Turbobit.net
FileFactory.com
Rapidgator.net

Tracklist:

1 Box Of Rain 5:17
2 Friend Of The Devil 3:21
3 Sugar Magnolia 3:17
4 Operator 2:22
5 Candyman 6:10
6 Ripple 4:10
7 Brokedown Palace 4:06
8 Till The Morning Comes 3:07
9 Attics Of My Life 5:10
10 Truckin' 5:03
Bonus Material
11 Truckin' (Single Version) 3:14
12 Friend Of The Devil (Live) 4:21
13 Candyman (Live) 5:15
14 Till The Morning Comes (Live) 3:20
15 Attics Of My Life (Live) 6:28
16 Truckin' (Live) 9:03
17 Ripple (Alternate Take) 3:01
18 American Beauty Radio Spot 1:10

EAC-Log, CUE-Sheed & NFO:

Click to open spoiler
Exact Audio Copy V1.1 from 23. June 2015

EAC extraction logfile from 1. August 2015, 18:37

Grateful Dead / American Beauty HDCD

Used drive : PLEXTOR BD-R PX-B950SA Adapter: 1 ID: 1

Read mode : Secure
Utilize accurate stream : Yes
Defeat audio cache : Yes
Make use of C2 pointers : No

Read offset correction : 6
Overread into Lead-In and Lead-Out : No
Fill up missing offset samples with silence : Yes
Delete leading and trailing silent blocks : No
Null samples used in CRC calculations : Yes
Used interface : Native Win32 interface for Win NT & 2000

Used output format : Internal WAV Routines
Sample format : 44.100 Hz; 16 Bit; Stereo

TOC of the extracted CD

Track | Start | Length | Start sector | End sector
———————————————————
1 | 0:00.33 | 5:18.52 | 33 | 23934
2 | 5:19.10 | 3:24.50 | 23935 | 39284
3 | 8:43.60 | 3:19.25 | 39285 | 54234
4 | 12:03.10 | 2:25.58 | 54235 | 65167
5 | 14:28.68 | 6:13.62 | 65168 | 93204
6 | 20:42.55 | 4:09.70 | 93205 | 111949
7 | 24:52.50 | 4:09.00 | 111950 | 130624
8 | 29:01.50 | 3:09.03 | 130625 | 144802
9 | 32:10.53 | 5:14.20 | 144803 | 168372
10 | 37:24.73 | 5:17.65 | 168373 | 192212
11 | 42:42.63 | 3:17.17 | 192213 | 207004
12 | 46:00.05 | 4:21.68 | 207005 | 226647
13 | 50:21.73 | 5:18.10 | 226648 | 250507
14 | 55:40.08 | 3:20.47 | 250508 | 265554
15 | 59:00.55 | 6:31.15 | 265555 | 294894
16 | 65:31.70 | 10:10.10 | 294895 | 340654
17 | 75:42.05 | 3:01.58 | 340655 | 354287
18 | 78:43.63 | 1:10.37 | 354288 | 359574

Range status and errors

Selected range

Filename C:\Users\Meijin\Desktop\Lossless Galaxy ALLexxess\Grateful Dead\2001 The Golden Road 1965-1973 (12HDCD Box Set Rhino Records)\1970 American Beauty\Grateful Dead – American Beauty HDCD.wav

Peak level 98.8 %
Extraction speed 8.7 X
Range quality 100.0 %
Test CRC 7D93E83E
Copy CRC 7D93E83E
Copy OK

No errors occurred

AccurateRip summary

Track 1 accurately ripped (confidence 95) [C3B69A41] (AR v2)
Track 2 accurately ripped (confidence 97) [548A053D] (AR v2)
Track 3 accurately ripped (confidence 97) [3B451526] (AR v2)
Track 4 accurately ripped (confidence 95) [5B514972] (AR v2)
Track 5 accurately ripped (confidence 95) [EF3D0B59] (AR v2)
Track 6 accurately ripped (confidence 95) [2AF0E967] (AR v2)
Track 7 accurately ripped (confidence 95) [CC771906] (AR v2)
Track 8 accurately ripped (confidence 95) [13BBA324] (AR v2)
Track 9 accurately ripped (confidence 96) [808FE9A0] (AR v2)
Track 10 accurately ripped (confidence 95) [712C39DD] (AR v2)
Track 11 accurately ripped (confidence 94) [E9A485A2] (AR v2)
Track 12 accurately ripped (confidence 91) [AAB195F5] (AR v2)
Track 13 accurately ripped (confidence 91) [CF3107A1] (AR v2)
Track 14 accurately ripped (confidence 93) [D0F044D0] (AR v2)
Track 15 accurately ripped (confidence 92) [E172D235] (AR v2)
Track 16 accurately ripped (confidence 85) [37F14D0B] (AR v2)
Track 17 accurately ripped (confidence 91) [2837EA7B] (AR v2)
Track 18 accurately ripped (confidence 86) [6408B07F] (AR v2)

All tracks accurately ripped

End of status report

—- CUETools DB Plugin V2.1.6

[CTDB TOCID: 8XnHDF2UU1qdTG7jFlK0ZBgdRTQ-] found
Submit result: 8XnHDF2UU1qdTG7jFlK0ZBgdRTQ- has been confirmed
Track | CTDB Status
1 | (40/40) Accurately ripped
2 | (40/40) Accurately ripped
3 | (40/40) Accurately ripped
4 | (40/40) Accurately ripped
5 | (40/40) Accurately ripped
6 | (40/40) Accurately ripped
7 | (40/40) Accurately ripped
8 | (40/40) Accurately ripped
9 | (40/40) Accurately ripped
10 | (40/40) Accurately ripped
11 | (39/40) Accurately ripped
12 | (39/40) Accurately ripped
13 | (39/40) Accurately ripped
14 | (40/40) Accurately ripped
15 | (39/40) Accurately ripped
16 | (37/40) Accurately ripped
17 | (39/40) Accurately ripped
18 | (38/40) Accurately ripped

==== Log checksum C7B3CB6358122ABE4B27172964F525445AA07D38AD5110F0BD8F956D4818EE9E ====

REM GENRE “Rock / Folk Rock / Blues Rock / Psychedelic Rock”
REM DATE 1970
REM DISCID F312BA12
REM COMMENT “ExactAudioCopy v1.1”
PERFORMER “Grateful Dead”
TITLE “American Beauty HDCD”
FILE “Grateful Dead – American Beauty HDCD.flac” WAVE
TRACK 01 AUDIO
TITLE “Box Of Rain”
PERFORMER “Grateful Dead”
INDEX 00 00:00:00
INDEX 01 00:00:33
TRACK 02 AUDIO
TITLE “Friend Of The Devil”
PERFORMER “Grateful Dead”
INDEX 00 05:17:65
INDEX 01 05:19:10
TRACK 03 AUDIO
TITLE “Sugar Magnolia”
PERFORMER “Grateful Dead”
INDEX 00 08:41:00
INDEX 01 08:43:60
TRACK 04 AUDIO
TITLE “Operator”
PERFORMER “Grateful Dead”
INDEX 00 12:01:13
INDEX 01 12:03:10
TRACK 05 AUDIO
TITLE “Candyman”
PERFORMER “Grateful Dead”
INDEX 00 14:25:33
INDEX 01 14:28:68
TRACK 06 AUDIO
TITLE “Ripple”
PERFORMER “Grateful Dead”
INDEX 00 20:39:40
INDEX 01 20:42:55
TRACK 07 AUDIO
TITLE “Brokedown Palace”
PERFORMER “Grateful Dead”
INDEX 01 24:52:50
TRACK 08 AUDIO
TITLE “Till The Morning Comes”
PERFORMER “Grateful Dead”
INDEX 00 28:58:20
INDEX 01 29:01:50
TRACK 09 AUDIO
TITLE “Attics Of My Life”
PERFORMER “Grateful Dead”
INDEX 00 32:09:03
INDEX 01 32:10:53
TRACK 10 AUDIO
TITLE “Truckin'”
PERFORMER “Grateful Dead”
INDEX 00 37:21:25
INDEX 01 37:24:73
TRACK 11 AUDIO
TITLE “Truckin’ (Single Version) / Bonus”
PERFORMER “Grateful Dead”
INDEX 00 42:28:18
INDEX 01 42:42:63
TRACK 12 AUDIO
TITLE “Friend Of The Devil (Live) / Bonus”
PERFORMER “Grateful Dead”
INDEX 00 45:56:58
INDEX 01 46:00:05
TRACK 13 AUDIO
TITLE “Candyman (Live) / Bonus”
PERFORMER “Grateful Dead”
INDEX 01 50:21:73
TRACK 14 AUDIO
TITLE “Till The Morning Comes (Live) / Bonus”
PERFORMER “Grateful Dead”
INDEX 00 55:37:58
INDEX 01 55:40:08
TRACK 15 AUDIO
TITLE “Attics Of My Life (Live) / Bonus”
PERFORMER “Grateful Dead”
INDEX 01 59:00:55
TRACK 16 AUDIO
TITLE “Truckin’ (Live) / Bonus”
PERFORMER “Grateful Dead”
INDEX 00 65:29:25
INDEX 01 65:31:70
TRACK 17 AUDIO
TITLE “Ripple (Single Version) / Hidden Track”
PERFORMER “Grateful Dead”
INDEX 00 74:35:48
INDEX 01 75:42:05
TRACK 18 AUDIO
TITLE “30 Sec Radio Spot / Hidden Track”
PERFORMER “Grateful Dead”
INDEX 00 78:37:48
INDEX 01 78:43:63


Leave a Reply

Your email address will not be published. Required fields are marked *

This site uses Akismet to reduce spam. Learn how your comment data is processed.