Graham Nash – This Path Tonight




Artist: Graham Nash
Year: 2016
Genre: Rock
Notes: Discogs
Add. Notes:
Cover incl.: Yes
Encoder: FLAC
Bitrate: ~700 kBit/s (44.1 kHz/16 Bit/s)
Log & Cue incl.: Yes
Size: 215,08 MB
Password: “slam” (without ” “)


All Downloads/Hosters are compatible

Download 1
Turbobit.net
Rapidgator.net
UploadEver.com
KatFile.com
UsersDrive.com
Download 2
Turbobit.net
Rapidgator.net
UploadEver.com
KatFile.com
UsersDrive.com
Download 3
Turbobit.net
Rapidgator.net
UploadEver.com
KatFile.com
UsersDrive.com

Tracklist:

1 - This Path Tonight - 4:28
2 - Myself At Last - 5:19
3 - Cracks In The City - 3:42
4 - Beneath The Waves - 4:03
5 - Fire Down Below - 3:29
6 - Another Broken Heart - 4:59
7 - Target - 3:37
8 - Golden Days - 3:40
9 - Back Home - 4:51
10 - Encore - 3:55

EAC-Log, CUE-Sheed & NFO:

Click to open spoiler
Exact Audio Copy V1.1 from 23. June 2015

EAC extraction logfile from 14. April 2016, 16:26

Graham Nash / This Path Tonight

Used drive : HL-DT-STDVDRAM GH24NSD1 Adapter: 0 ID: 0

Read mode : Secure
Utilize accurate stream : Yes
Defeat audio cache : Yes
Make use of C2 pointers : No

Read offset correction : 6
Overread into Lead-In and Lead-Out : No
Fill up missing offset samples with silence : Yes
Delete leading and trailing silent blocks : No
Null samples used in CRC calculations : Yes
Used interface : Installed external ASPI interface

Used output format : Internal WAV Routines
Sample format : 44.100 Hz; 16 Bit; Stereo

TOC of the extracted CD

Track | Start | Length | Start sector | End sector
———————————————————
1 | 0:00.00 | 4:28.21 | 0 | 20120
2 | 4:28.21 | 5:19.03 | 20121 | 44048
3 | 9:47.24 | 3:41.60 | 44049 | 60683
4 | 13:29.09 | 4:02.74 | 60684 | 78907
5 | 17:32.08 | 3:29.25 | 78908 | 94607
6 | 21:01.33 | 4:59.24 | 94608 | 117056
7 | 26:00.57 | 3:37.28 | 117057 | 133359
8 | 29:38.10 | 3:40.00 | 133360 | 149859
9 | 33:18.10 | 4:50.57 | 149860 | 171666
10 | 38:08.67 | 3:52.46 | 171667 | 189112

Range status and errors

Selected range

Filename E:\SPOTNET\Graham Nash – This Path Tonight (EAC)\Graham Nash – This Path Tonight.wav

Peak level 100.0 %
Extraction speed 6.8 X
Range quality 100.0 %
Test CRC BC3B87D6
Copy CRC BC3B87D6
Copy OK

No errors occurred

AccurateRip summary

Track 1 accurately ripped (confidence 1) [F46171FA] (AR v2)
Track 2 accurately ripped (confidence 1) [D2AF7912] (AR v2)
Track 3 accurately ripped (confidence 1) [D569776D] (AR v2)
Track 4 accurately ripped (confidence 1) [372290A0] (AR v2)
Track 5 accurately ripped (confidence 1) [DB921A6B] (AR v2)
Track 6 accurately ripped (confidence 1) [F436CF75] (AR v2)
Track 7 accurately ripped (confidence 1) [4F66483D] (AR v2)
Track 8 accurately ripped (confidence 1) [835E11AD] (AR v2)
Track 9 accurately ripped (confidence 1) [81570A80] (AR v2)
Track 10 accurately ripped (confidence 1) [6609C6E2] (AR v2)

All tracks accurately ripped

End of status report

REM GENRE Pop
REM DATE 2016
REM DISCID 6E09D90A
REM COMMENT “ExactAudioCopy v1.1”
PERFORMER “Graham Nash”
TITLE “This Path Tonight”
FILE “Graham Nash – This Path Tonight.wav” WAVE
TRACK 01 AUDIO
TITLE “This Path Tonight”
PERFORMER “Graham Nash”
INDEX 01 00:00:00
TRACK 02 AUDIO
TITLE “Myself At Last”
PERFORMER “Graham Nash”
INDEX 00 04:26:71
INDEX 01 04:28:21
TRACK 03 AUDIO
TITLE “Cracks In The City”
PERFORMER “Graham Nash”
INDEX 00 09:46:30
INDEX 01 09:47:24
TRACK 04 AUDIO
TITLE “Beneath The Waves”
PERFORMER “Graham Nash”
INDEX 00 13:28:62
INDEX 01 13:29:09
TRACK 05 AUDIO
TITLE “Fire Down Below”
PERFORMER “Graham Nash”
INDEX 00 17:30:18
INDEX 01 17:32:08
TRACK 06 AUDIO
TITLE “Another Broken Heart”
PERFORMER “Graham Nash”
INDEX 00 21:00:11
INDEX 01 21:01:33
TRACK 07 AUDIO
TITLE “Target”
PERFORMER “Graham Nash”
INDEX 00 25:58:50
INDEX 01 26:00:57
TRACK 08 AUDIO
TITLE “Golden Days”
PERFORMER “Graham Nash”
INDEX 00 29:35:26
INDEX 01 29:38:10
TRACK 09 AUDIO
TITLE “Back Home”
PERFORMER “Graham Nash”
INDEX 00 33:16:57
INDEX 01 33:18:10
TRACK 10 AUDIO
TITLE “Encore”
PERFORMER “Graham Nash”
INDEX 00 38:06:17
INDEX 01 38:08:67

Leave a Reply

Your email address will not be published. Required fields are marked *

This site uses Akismet to reduce spam. Learn how your comment data is processed.