Gorillaz – Plastic Beach




[Total: 0    Average: 0/5]

Artist: Gorillaz
Year: 2010
Genre: Alternative
Notes: Discogs
Add. Notes:
Cover incl.: Yes
Encoder: FLAC
Bitrate: ~1000 kBit/s (44.1 kHz/16 Bit/s)
Log & Cue incl.: Yes
Size: 422 MB
Password: “slam” (without ” “)


All Downloads/Hosters are compatible

Download 1
KatFile.com
Rapidgator.net
Share-online.biz
Download 2
KatFile.com
Rapidgator.net
Share-online.biz

Tracklist:

1 - Orchestral Intro - 1:09
2 - Welcome To The World Of The 
Plastic Beach - 3:36
3 - White Flag - 3:43
4 - Rhinestone Eyes - 3:20
5 - Stylo - 4:31
6 - Superfast Jellyfish - 2:55
7 - Empire Ants - 4:44
8 - Glitter Freeze - 4:03
9 - Some Kind Of Nature - 3:00
10 - On Melancholy Hill - 3:54
11 - Broken - 3:17
12 - Sweepstakes - 5:20
13 - Plastic Beach - 3:47
14 - To Binge - 3:56
15 - Cloud Of Unknowing - 3:06
16 - Pirate Jet - 2:32

EAC-Log, CUE-Sheed & NFO:

Click to open spoiler
Exact Audio Copy V1.0 beta 3 from 29. August 2011

EAC extraction logfile from 13. January 2013, 17:40

Gorillaz / Plastic Beach (CD)

Used drive : hp CDDVDW SN-208BB Adapter: 0 ID: 1

Read mode : Secure
Utilize accurate stream : Yes
Defeat audio cache : No
Make use of C2 pointers : No

Read offset correction : 6
Overread into Lead-In and Lead-Out : No
Fill up missing offset samples with silence : Yes
Delete leading and trailing silent blocks : No
Null samples used in CRC calculations : Yes
Used interface : Native Win32 interface for Win NT & 2000
Gap handling : Appended to previous track

Used output format : User Defined Encoder
Selected bitrate : 1024 kBit/s
Quality : High
Add ID3 tag : No
Command line compressor : C:\Program Files (x86)\Exact Audio Copy\FLAC\FLAC.EXE
Additional command line options : -8 -V -T “ARTIST=%artist%” -T “TITLE=%title%” -T “ALBUM=%albumtitle%” -T “DATE=%year%” -T “TRACKNUMBER=%tracknr2%/%numtracks%” -T “GENRE=%genre%” -T “COMMENT=%comment%” -T “ALBUMARTIST=%albuminterpret%” -T “COMPOSER=%composer%” -T “DISCNUMBER=%cdnumber%” -T “TOTALDISCS=%totalcds%” -T “TOTALTRACKS=%numtracks%” %hascover%–picture=”%coverfile%”%hascover% %source% -o %dest%

TOC of the extracted CD

Track | Start | Length | Start sector | End sector
———————————————————
1 | 0:00.00 | 1:09.29 | 0 | 5203
2 | 1:09.29 | 3:35.38 | 5204 | 21366
3 | 4:44.67 | 3:43.35 | 21367 | 38126
4 | 8:28.27 | 3:20.13 | 38127 | 53139
5 | 11:48.40 | 4:30.39 | 53140 | 73428
6 | 16:19.04 | 2:54.65 | 73429 | 86543
7 | 19:13.69 | 4:43.43 | 86544 | 107811
8 | 23:57.37 | 4:03.19 | 107812 | 126055
9 | 28:00.56 | 2:59.65 | 126056 | 139545
10 | 31:00.46 | 3:53.65 | 139546 | 157085
11 | 34:54.36 | 3:17.04 | 157086 | 171864
12 | 38:11.40 | 5:20.35 | 171865 | 195899
13 | 43:32.00 | 3:47.16 | 195900 | 212940
14 | 47:19.16 | 3:55.53 | 212941 | 230618
15 | 51:14.69 | 3:06.09 | 230619 | 244577
16 | 54:21.03 | 2:32.34 | 244578 | 256011

Track 1

Filename E:\RIP\EAC\Gorillaz\2010.Plastic Beach (CD)\Plastic Beach (CD) – 01.16 – Orchestral Intro.wav

Pre-gap length 0:00:02.00

Peak level 79.7 %
Extraction speed 2.4 X
Track quality 99.8 %
Copy CRC 42BD8E7F
Accurately ripped (confidence 7) [FBB203E9] (AR v1)
Copy OK

Track 2

Filename E:\RIP\EAC\Gorillaz\2010.Plastic Beach (CD)\Plastic Beach (CD) – 02.16 – Welcome To The World Of The Plastic Beach.wav

Peak level 97.9 %
Extraction speed 1.9 X
Track quality 100.0 %
Copy CRC 024165E4
Accurately ripped (confidence 7) [2387C029] (AR v1)
Copy OK

Track 3

Filename E:\RIP\EAC\Gorillaz\2010.Plastic Beach (CD)\Plastic Beach (CD) – 03.16 – White Flag.wav

Peak level 99.9 %
Extraction speed 2.1 X
Track quality 100.0 %
Copy CRC 5168FE5C
Accurately ripped (confidence 7) [F19CC16C] (AR v1)
Copy OK

Track 4

Filename E:\RIP\EAC\Gorillaz\2010.Plastic Beach (CD)\Plastic Beach (CD) – 04.16 – Rhinestone Eyes.wav

Peak level 99.9 %
Extraction speed 2.3 X
Track quality 99.9 %
Copy CRC 752D9C1E
Accurately ripped (confidence 7) [29077C7D] (AR v1)
Copy OK

Track 5

Filename E:\RIP\EAC\Gorillaz\2010.Plastic Beach (CD)\Plastic Beach (CD) – 05.16 – Stylo.wav

Peak level 100.0 %
Extraction speed 2.5 X
Track quality 100.0 %
Copy CRC A683F7EB
Accurately ripped (confidence 6) [B9702951] (AR v1)
Copy OK

Track 6

Filename E:\RIP\EAC\Gorillaz\2010.Plastic Beach (CD)\Plastic Beach (CD) – 06.16 – Superfast Jellyfish.wav

Peak level 99.9 %
Extraction speed 2.6 X
Track quality 100.0 %
Copy CRC DC90E8D0
Accurately ripped (confidence 7) [4BA6F0E5] (AR v1)
Copy OK

Track 7

Filename E:\RIP\EAC\Gorillaz\2010.Plastic Beach (CD)\Plastic Beach (CD) – 07.16 – Empire Ants.wav

Peak level 97.7 %
Extraction speed 2.8 X
Track quality 100.0 %
Copy CRC D4A2927C
Accurately ripped (confidence 7) [F4D9FC2A] (AR v1)
Copy OK

Track 8

Filename E:\RIP\EAC\Gorillaz\2010.Plastic Beach (CD)\Plastic Beach (CD) – 08.16 – Glitter Freeze.wav

Peak level 100.0 %
Extraction speed 2.9 X
Track quality 100.0 %
Copy CRC FCFC0FBA
Accurately ripped (confidence 7) [CB989718] (AR v1)
Copy OK

Track 9

Filename E:\RIP\EAC\Gorillaz\2010.Plastic Beach (CD)\Plastic Beach (CD) – 09.16 – Some Kind Of Nature.wav

Peak level 100.0 %
Extraction speed 3.0 X
Track quality 100.0 %
Copy CRC 1D26BF67
Accurately ripped (confidence 7) [C4160035] (AR v1)
Copy OK

Track 10

Filename E:\RIP\EAC\Gorillaz\2010.Plastic Beach (CD)\Plastic Beach (CD) – 10.16 – On Melancholy Hill.wav

Peak level 100.0 %
Extraction speed 3.1 X
Track quality 100.0 %
Copy CRC 878401C4
Accurately ripped (confidence 7) [BAFB3217] (AR v1)
Copy OK

Track 11

Filename E:\RIP\EAC\Gorillaz\2010.Plastic Beach (CD)\Plastic Beach (CD) – 11.16 – Broken.wav

Peak level 100.0 %
Extraction speed 3.2 X
Track quality 100.0 %
Copy CRC 2A2B7FCE
Accurately ripped (confidence 7) [C2B5457B] (AR v1)
Copy OK

Track 12

Filename E:\RIP\EAC\Gorillaz\2010.Plastic Beach (CD)\Plastic Beach (CD) – 12.16 – Sweepstakes.wav

Peak level 99.9 %
Extraction speed 3.4 X
Track quality 100.0 %
Copy CRC 6E215F81
Accurately ripped (confidence 7) [F65F9706] (AR v1)
Copy OK

Track 13

Filename E:\RIP\EAC\Gorillaz\2010.Plastic Beach (CD)\Plastic Beach (CD) – 13.16 – Plastic Beach.wav

Peak level 100.0 %
Extraction speed 3.5 X
Track quality 100.0 %
Copy CRC ADB8D0B3
Accurately ripped (confidence 7) [87968FB6] (AR v1)
Copy OK

Track 14

Filename E:\RIP\EAC\Gorillaz\2010.Plastic Beach (CD)\Plastic Beach (CD) – 14.16 – To Binge.wav

Peak level 99.9 %
Extraction speed 3.6 X
Track quality 99.9 %
Copy CRC A19E5234
Accurately ripped (confidence 7) [EDCD4648] (AR v1)
Copy OK

Track 15

Filename E:\RIP\EAC\Gorillaz\2010.Plastic Beach (CD)\Plastic Beach (CD) – 15.16 – Cloud Of Unknowing.wav

Peak level 100.0 %
Extraction speed 3.7 X
Track quality 100.0 %
Copy CRC 37B0696A
Accurately ripped (confidence 7) [1D7AE7A5] (AR v1)
Copy OK

Track 16

Filename E:\RIP\EAC\Gorillaz\2010.Plastic Beach (CD)\Plastic Beach (CD) – 16.16 – Pirate Jet.wav

Peak level 100.0 %
Extraction speed 3.7 X
Track quality 100.0 %
Copy CRC F93A33C7
Accurately ripped (confidence 6) [4BE51223] (AR v1)
Copy OK

All tracks accurately ripped

No errors occurred

End of status report

—- CUETools DB Plugin V2.1.3

[CTDB TOCID: 5NR69hH8TnER_gIvFqlFx4LhW4Q-] found, Submit result: 5NR69hH8TnER_gIvFqlFx4LhW4Q- has been confirmed
[20d1f49e] (094/120) Accurately ripped
[660345b8] (024/120) No match
[a0e2084d] (001/120) No match
[b93ec424] (001/120) No match

==== Log checksum 80739B0215162D979377472B5161D97A17B7FD9C36C6DDF2F729E99307C6AC6A ====

REM GENRE Electronic
REM DATE 2010
REM DISCID D40D5510
REM COMMENT “ExactAudioCopy v1.0b3”
CATALOG 5099962782708
PERFORMER “Gorillaz”
TITLE “Plastic Beach (CD)”
FILE “Gorillaz\2010.Plastic Beach (CD)\Plastic Beach (CD) – 01.16 – Orchestral Intro.wav” WAVE
TRACK 01 AUDIO
TITLE “Orchestral Intro”
PERFORMER “Gorillaz”
ISRC GBAYE1000001
INDEX 01 00:00:00
FILE “Gorillaz\2010.Plastic Beach (CD)\Plastic Beach (CD) – 02.16 – Welcome To The World Of The Plastic Beach.wav” WAVE
TRACK 02 AUDIO
TITLE “Welcome To The World Of The Plastic Beach”
PERFORMER “Gorillaz”
ISRC GBAYE1000004
INDEX 01 00:00:00
FILE “Gorillaz\2010.Plastic Beach (CD)\Plastic Beach (CD) – 03.16 – White Flag.wav” WAVE
TRACK 03 AUDIO
TITLE “White Flag”
PERFORMER “Gorillaz”
ISRC GBAYE1000005
INDEX 01 00:00:00
FILE “Gorillaz\2010.Plastic Beach (CD)\Plastic Beach (CD) – 04.16 – Rhinestone Eyes.wav” WAVE
TRACK 04 AUDIO
TITLE “Rhinestone Eyes”
PERFORMER “Gorillaz”
ISRC GBAYE1000017
INDEX 01 00:00:00
FILE “Gorillaz\2010.Plastic Beach (CD)\Plastic Beach (CD) – 05.16 – Stylo.wav” WAVE
TRACK 05 AUDIO
TITLE “Stylo”
PERFORMER “Gorillaz”
ISRC GBAYE0903021
INDEX 01 00:00:00
FILE “Gorillaz\2010.Plastic Beach (CD)\Plastic Beach (CD) – 06.16 – Superfast Jellyfish.wav” WAVE
TRACK 06 AUDIO
TITLE “Superfast Jellyfish”
PERFORMER “Gorillaz”
ISRC GBAYE1000006
INDEX 01 00:00:00
FILE “Gorillaz\2010.Plastic Beach (CD)\Plastic Beach (CD) – 07.16 – Empire Ants.wav” WAVE
TRACK 07 AUDIO
TITLE “Empire Ants”
PERFORMER “Gorillaz”
ISRC GBAYE1000007
INDEX 01 00:00:00
FILE “Gorillaz\2010.Plastic Beach (CD)\Plastic Beach (CD) – 08.16 – Glitter Freeze.wav” WAVE
TRACK 08 AUDIO
TITLE “Glitter Freeze”
PERFORMER “Gorillaz”
ISRC GBAYE1000008
INDEX 01 00:00:00
FILE “Gorillaz\2010.Plastic Beach (CD)\Plastic Beach (CD) – 09.16 – Some Kind Of Nature.wav” WAVE
TRACK 09 AUDIO
TITLE “Some Kind Of Nature”
PERFORMER “Gorillaz”
ISRC GBAYE1000009
INDEX 01 00:00:00
FILE “Gorillaz\2010.Plastic Beach (CD)\Plastic Beach (CD) – 10.16 – On Melancholy Hill.wav” WAVE
TRACK 10 AUDIO
TITLE “On Melancholy Hill”
PERFORMER “Gorillaz”
ISRC GBAYE1000010
INDEX 01 00:00:00
FILE “Gorillaz\2010.Plastic Beach (CD)\Plastic Beach (CD) – 11.16 – Broken.wav” WAVE
TRACK 11 AUDIO
TITLE “Broken”
PERFORMER “Gorillaz”
ISRC GBAYE1000011
INDEX 01 00:00:00
FILE “Gorillaz\2010.Plastic Beach (CD)\Plastic Beach (CD) – 12.16 – Sweepstakes.wav” WAVE
TRACK 12 AUDIO
TITLE “Sweepstakes”
PERFORMER “Gorillaz”
ISRC GBAYE1000011
INDEX 01 00:00:00
FILE “Gorillaz\2010.Plastic Beach (CD)\Plastic Beach (CD) – 13.16 – Plastic Beach.wav” WAVE
TRACK 13 AUDIO
TITLE “Plastic Beach”
PERFORMER “Gorillaz”
ISRC GBAYE1000012
INDEX 01 00:00:00
FILE “Gorillaz\2010.Plastic Beach (CD)\Plastic Beach (CD) – 14.16 – To Binge.wav” WAVE
TRACK 14 AUDIO
TITLE “To Binge”
PERFORMER “Gorillaz”
ISRC GBAYE1000013
INDEX 01 00:00:00
FILE “Gorillaz\2010.Plastic Beach (CD)\Plastic Beach (CD) – 15.16 – Cloud Of Unknowing.wav” WAVE
TRACK 15 AUDIO
TITLE “Cloud Of Unknowing”
PERFORMER “Gorillaz”
ISRC GBAYE1000014
INDEX 01 00:00:00
FILE “Gorillaz\2010.Plastic Beach (CD)\Plastic Beach (CD) – 16.16 – Pirate Jet.wav” WAVE
TRACK 16 AUDIO
TITLE “Pirate Jet”
PERFORMER “Gorillaz”
ISRC GBAYE1000015
INDEX 01 00:00:00


Spread the Download

Leave a Reply

Your email address will not be published. Required fields are marked *

Enter the text from the image below
 

This site uses Akismet to reduce spam. Learn how your comment data is processed.