Gorillaz – Laika Come




Artist: Gorillaz
Year: 2002
Genre: Rock
Notes: Discogs
Add. Notes:
Cover incl.: Yes
Encoder: FLAC
Bitrate: ~800 kBit/s (44.1 kHz/16 Bit/s)
Log & Cue incl.: Yes
Size: 362,4 MB
Password: “slam” (without ” “)


All Downloads/Hosters are compatible

Download 1
Turbobit.net
Rapidgator.net
UploadEver.com
JustUpload.io
UsersDrive.com
Download 2
Turbobit.net
Rapidgator.net
UploadEver.com
JustUpload.io
UsersDrive.com
Download 3
Turbobit.net
Rapidgator.net
UploadEver.com
JustUpload.io
UsersDrive.com

Tracklist:

1 - 19/2000 (Jungle Fresh)  
2 - Slow Country (Strictly Rubbadub)  
3 - Tomorrow Comes Today (Bañana Baby)  
4 - Man Research (Monkey Racket)  
5 - Punk (De-Punked)  
6 - 5/4 (P.45)  
7 - Starshine (Dub 09)  
8 - Soundcheck (Gravity) (Crooked Dub)  
9 - New Genius (Brother) (Mutant Genius)  
10 - He-Hash (Come Again)  
11 - Clint Eastwood (A Fistful Of Peanuts)  
12 - M1 A1 (Lil' Dub Chefin')

EAC-Log, CUE-Sheed & NFO:

Click to open spoiler
Exact Audio Copy V0.99 prebeta 5 from 4. May 2009

EAC extraction logfile from 20. August 2009, 17:43

Spacemonkeyz vs. Gorillaz / Laika Come Home

Used drive : Optiarc DVD RW AD-7200S Adapter: 0 ID: 0

Read mode : Secure
Utilize accurate stream : Yes
Defeat audio cache : Yes
Make use of C2 pointers : No

Read offset correction : 48
Overread into Lead-In and Lead-Out : No
Fill up missing offset samples with silence : Yes
Delete leading and trailing silent blocks : No
Null samples used in CRC calculations : Yes
Used interface : Native Win32 interface for Win NT & 2000
Gap handling : Appended to previous track

Used output format : User Defined Encoder
Selected bitrate : 320 kBit/s
Quality : High
Add ID3 tag : No
Command line compressor : C:\Program Files\Exact Audio Copy\Flac\flac.exe
Additional command line options : -6 -V -T “ARTIST=%a” -T “TITLE=%t” -T “ALBUM=%g” -T “DATE=%y” -T “TRACKNUMBER=%n” -T “GENRE=%m” -T “COMMENT=%e” %s -o %d

TOC of the extracted CD

Track | Start | Length | Start sector | End sector
———————————————————
1 | 0:00.00 | 5:28.35 | 0 | 24634
2 | 5:28.35 | 3:41.32 | 24635 | 41241
3 | 9:09.67 | 5:29.25 | 41242 | 65941
4 | 14:39.17 | 5:57.35 | 65942 | 92751
5 | 20:36.52 | 5:20.38 | 92752 | 116789
6 | 25:57.15 | 4:26.35 | 116790 | 136774
7 | 30:23.50 | 5:17.25 | 136775 | 160574
8 | 35:41.00 | 5:31.65 | 160575 | 185464
9 | 41:12.65 | 5:02.10 | 185465 | 208124
10 | 46:15.00 | 6:04.45 | 208125 | 235469
11 | 52:19.45 | 5:53.20 | 235470 | 261964
12 | 58:12.65 | 11:21.72 | 261965 | 313111

Track 1

Filename C:\Recovered Files\Audio\Gorillaz\Albums\2002 – Laika Come Home (7243 5 39982 2 6)\01 – 19,2000 (Jungle Fresh).wav

Pre-gap length 0:00:02.00

Peak level 98.0 %
Track quality 100.0 %
Test CRC A3B9410B
Copy CRC A3B9410B
Accurately ripped (confidence 26) [29B440E1]
Copy OK

Track 2

Filename C:\Recovered Files\Audio\Gorillaz\Albums\2002 – Laika Come Home (7243 5 39982 2 6)\02 – Slow Country (Strictly Rubbadub).wav

Peak level 98.0 %
Track quality 100.0 %
Test CRC 5A8C05D7
Copy CRC 5A8C05D7
Accurately ripped (confidence 27) [DB154069]
Copy OK

Track 3

Filename C:\Recovered Files\Audio\Gorillaz\Albums\2002 – Laika Come Home (7243 5 39982 2 6)\03 – Tomorrow Comes Today (Bañana Baby).wav

Peak level 97.9 %
Track quality 100.0 %
Test CRC 596F117A
Copy CRC 596F117A
Accurately ripped (confidence 27) [1911F010]
Copy OK

Track 4

Filename C:\Recovered Files\Audio\Gorillaz\Albums\2002 – Laika Come Home (7243 5 39982 2 6)\04 – Man Research (Monkey Racket).wav

Peak level 98.0 %
Track quality 100.0 %
Test CRC 1A5235FF
Copy CRC 1A5235FF
Accurately ripped (confidence 27) [30BDBA8A]
Copy OK

Track 5

Filename C:\Recovered Files\Audio\Gorillaz\Albums\2002 – Laika Come Home (7243 5 39982 2 6)\05 – Punk (De-Punked).wav

Peak level 98.0 %
Track quality 100.0 %
Test CRC F6BF26BD
Copy CRC F6BF26BD
Accurately ripped (confidence 27) [E579AB08]
Copy OK

Track 6

Filename C:\Recovered Files\Audio\Gorillaz\Albums\2002 – Laika Come Home (7243 5 39982 2 6)\06 – 5,4 (P.45).wav

Peak level 98.0 %
Track quality 100.0 %
Test CRC 3D1D38D4
Copy CRC 3D1D38D4
Accurately ripped (confidence 27) [29100351]
Copy OK

Track 7

Filename C:\Recovered Files\Audio\Gorillaz\Albums\2002 – Laika Come Home (7243 5 39982 2 6)\07 – Starshine (Dub 09).wav

Peak level 98.0 %
Track quality 100.0 %
Test CRC 02A5B98A
Copy CRC 02A5B98A
Accurately ripped (confidence 27) [70207130]
Copy OK

Track 8

Filename C:\Recovered Files\Audio\Gorillaz\Albums\2002 – Laika Come Home (7243 5 39982 2 6)\08 – Souncheck (Gravity) (Crooked Dub).wav

Peak level 98.0 %
Track quality 100.0 %
Test CRC 214915EF
Copy CRC 214915EF
Accurately ripped (confidence 27) [0B644413]
Copy OK

Track 9

Filename C:\Recovered Files\Audio\Gorillaz\Albums\2002 – Laika Come Home (7243 5 39982 2 6)\09 – New Genius (Brother) (Mutant Genius).wav

Peak level 90.6 %
Track quality 100.0 %
Test CRC 8408FA23
Copy CRC 8408FA23
Accurately ripped (confidence 27) [C3C5CC17]
Copy OK

Track 10

Filename C:\Recovered Files\Audio\Gorillaz\Albums\2002 – Laika Come Home (7243 5 39982 2 6)\10 – Re Hash (Come Again).wav

Peak level 98.0 %
Track quality 99.9 %
Test CRC 694BA63D
Copy CRC 694BA63D
Accurately ripped (confidence 27) [0227F75C]
Copy OK

Track 11

Filename C:\Recovered Files\Audio\Gorillaz\Albums\2002 – Laika Come Home (7243 5 39982 2 6)\11 – Clint Eastwood (A Fistful of Peanuts).wav

Peak level 98.0 %
Track quality 100.0 %
Test CRC DD49F61C
Copy CRC DD49F61C
Accurately ripped (confidence 27) [FDBD794C]
Copy OK

Track 12

Filename C:\Recovered Files\Audio\Gorillaz\Albums\2002 – Laika Come Home (7243 5 39982 2 6)\12 – M1 A1 (Lil’ Dub Chefin’).wav

Peak level 98.0 %
Track quality 100.0 %
Test CRC 9BAB629B
Copy CRC 9BAB629B
Accurately ripped (confidence 21) [65473379]
Copy OK

All tracks accurately ripped

No errors occurred

End of status report

REM GENRE “Dub Reggae”
REM DATE 2002
REM DISCID A5104E0C
REM COMMENT “ExactAudioCopy v0.99pb5”
PERFORMER “Spacemonkeyz vs. Gorillaz”
TITLE “Laika Come Home”
FILE “01 – 19,2000 (Jungle Fresh).wav” WAVE
TRACK 01 AUDIO
TITLE “19/2000 (Jungle Fresh)”
PERFORMER “Spacemonkeyz vs. Gorillaz”
INDEX 01 00:00:00
FILE “02 – Slow Country (Strictly Rubbadub).wav” WAVE
TRACK 02 AUDIO
TITLE “Slow Country (Strictly Rubbadub)”
PERFORMER “Spacemonkeyz vs. Gorillaz”
INDEX 01 00:00:00
FILE “03 – Tomorrow Comes Today (Bañana Baby).wav” WAVE
TRACK 03 AUDIO
TITLE “Tomorrow Comes Today (Bañana Baby)”
PERFORMER “Spacemonkeyz vs. Gorillaz”
INDEX 01 00:00:00
FILE “04 – Man Research (Monkey Racket).wav” WAVE
TRACK 04 AUDIO
TITLE “Man Research (Monkey Racket)”
PERFORMER “Spacemonkeyz vs. Gorillaz”
INDEX 01 00:00:00
FILE “05 – Punk (De-Punked).wav” WAVE
TRACK 05 AUDIO
TITLE “Punk (De-Punked)”
PERFORMER “Spacemonkeyz vs. Gorillaz”
INDEX 01 00:00:00
FILE “06 – 5,4 (P.45).wav” WAVE
TRACK 06 AUDIO
TITLE “5/4 (P.45)”
PERFORMER “Spacemonkeyz vs. Gorillaz”
INDEX 01 00:00:00
FILE “07 – Starshine (Dub 09).wav” WAVE
TRACK 07 AUDIO
TITLE “Starshine (Dub 09)”
PERFORMER “Spacemonkeyz vs. Gorillaz”
INDEX 01 00:00:00
FILE “08 – Souncheck (Gravity) (Crooked Dub).wav” WAVE
TRACK 08 AUDIO
TITLE “Souncheck (Gravity) (Crooked Dub)”
PERFORMER “Spacemonkeyz vs. Gorillaz”
INDEX 01 00:00:00
FILE “09 – New Genius (Brother) (Mutant Genius).wav” WAVE
TRACK 09 AUDIO
TITLE “New Genius (Brother) (Mutant Genius)”
PERFORMER “Spacemonkeyz vs. Gorillaz”
INDEX 01 00:00:00
FILE “10 – Re Hash (Come Again).wav” WAVE
TRACK 10 AUDIO
TITLE “Re Hash (Come Again)”
PERFORMER “Spacemonkeyz vs. Gorillaz”
INDEX 01 00:00:00
FILE “11 – Clint Eastwood (A Fistful of Peanuts).wav” WAVE
TRACK 11 AUDIO
TITLE “Clint Eastwood (A Fistful of Peanuts)”
PERFORMER “Spacemonkeyz vs. Gorillaz”
INDEX 01 00:00:00
FILE “12 – M1 A1 (Lil’ Dub Chefin’).wav” WAVE
TRACK 12 AUDIO
TITLE “M1 A1 (Lil’ Dub Chefin’)”
PERFORMER “Spacemonkeyz vs. Gorillaz”
INDEX 01 00:00:00

Leave a Reply

Your email address will not be published. Required fields are marked *

This site uses Akismet to reduce spam. Learn how your comment data is processed.