Gorillaz – Humanz




Artist: Gorillaz
Year: 2017
Genre: Rock
Notes: Discogs
Add. Notes:
Cover incl.: Yes
Encoder: FLAC
Bitrate: ~900 kBit/s (44.1 kHz/16 Bit/s)
Log & Cue incl.: Yes
Size: 517,64 MB
Password: “slam” (without ” “)


All Downloads/Hosters are compatible

Download 1
NitroFlare.com
KatFile.com
Turbobit.net
Rapidgator.net
UploadRar.com
Download 2
NitroFlare.com
KatFile.com
Turbobit.net
Rapidgator.net
UploadRar.com

Tracklist:

1-1 - Intro: I Switched My Robot Off - 0:23
1-2 - Ascension - 2:35
1-3 - Strobelite - 4:32
1-4 - Saturnz Barz - 3:01
1-5 - Momentz - 3:16
1-6 - Interlude: The Non-Conformist Oath - 0:21
1-7 - Submission - 3:21
1-8 - Charger - 3:33
1-9 - Interlude: Elevator Going Up - 0:04
1-10 - Andromeda - 3:17
1-11 - Busted And Blue - 4:37
1-12 - Interlude: Talk Radio - 0:19
1-13 - Carnival - 2:15
1-14 - Let Me Out - 2:55
1-15 - Interlude: Penthouse - 0:11
1-16 - Sex Murder Party - 4:19
1-17 - She's My Collar - 3:29
1-18 - Interlude: The Elephant - 0:11
1-19 - Hallelujah Money - 4:23
1-20 - We Got The Power - 2:17
2-1 - Interlude: New World - 1:22
2-2 - The Apprentice - 3:55
2-3 - Halfway To The Halfway House - 3:58
2-4 - Out Of Body - 3:44
2-5 - Ticker Tape - 4:29
2-6 - Circle Of Friendz - 2:12
2-7 - Andromeda (D.R.A.M. Special) - 3:59
2-8 - Busted and Blue (Faia Younan Special) - 3:41

EAC-Log, CUE-Sheed & NFO:

Click to open spoiler
Exact Audio Copy V1.3 from 2. September 2016

EAC extraction logfile from 29. May 2017, 17:24

Gorillaz / Humanz

Used drive : PLEXTOR DVDR PX-L890SA Adapter: 1 ID: 1

Read mode : Secure
Utilize accurate stream : Yes
Defeat audio cache : Yes
Make use of C2 pointers : No

Read offset correction : 6
Overread into Lead-In and Lead-Out : No
Fill up missing offset samples with silence : Yes
Delete leading and trailing silent blocks : No
Null samples used in CRC calculations : Yes
Used interface : Native Win32 interface for Win NT & 2000
Gap handling : Appended to previous track

Used output format : User Defined Encoder
Selected bitrate : 1024 kBit/s
Quality : High
Add ID3 tag : No
Command line compressor : C:\Program Files (x86)\Exact Audio Copy\Flac\flac.exe
Additional command line options : -8 -e -p -V -T “ARTIST=%artist%” -T “TITLE=%title%” -T “ALBUM=%albumtitle%” -T “DATE=%year%” -T “TRACKNUMBER=%tracknr%” -T “GENRE=%genre%” -T “PERFORMER=%albuminterpret%” -T “COMPOSER=%composer%” %haslyrics%–tag-from-file=LYRICS=”%lyricsfile%”%haslyrics% -T “ALBUMARTIST=%albumartist%” -T “DISCNUMBER=%cdnumber%” -T “TOTALDISCS=%totalcds%” -T “TOTALTRACKS=%numtracks%” -T “COMMENT=%comment%” %source% -o %dest%

TOC of the extracted CD

Track | Start | Length | Start sector | End sector
———————————————————
1 | 0:00.00 | 0:24.01 | 0 | 1800
2 | 0:24.01 | 2:35.61 | 1801 | 13486
3 | 2:59.62 | 4:32.51 | 13487 | 33937
4 | 7:32.38 | 3:01.69 | 33938 | 47581
5 | 10:34.32 | 3:16.68 | 47582 | 62349
6 | 13:51.25 | 0:21.65 | 62350 | 63989
7 | 14:13.15 | 3:21.42 | 63990 | 79106
8 | 17:34.57 | 3:34.30 | 79107 | 95186
9 | 21:09.12 | 0:04.64 | 95187 | 95550
10 | 21:14.01 | 3:17.41 | 95551 | 110366
11 | 24:31.42 | 4:37.00 | 110367 | 131141
12 | 29:08.42 | 0:19.69 | 131142 | 132635
13 | 29:28.36 | 2:15.65 | 132636 | 142825
14 | 31:44.26 | 2:55.67 | 142826 | 156017
15 | 34:40.18 | 0:11.49 | 156018 | 156891
16 | 34:51.67 | 4:19.09 | 156892 | 176325
17 | 39:11.01 | 3:29.48 | 176326 | 192048
18 | 42:40.49 | 0:11.56 | 192049 | 192929
19 | 42:52.30 | 4:22.73 | 192930 | 212652
20 | 47:15.28 | 2:19.52 | 212653 | 223129

Track 1

Filename C:\heirloom rips\Gorillaz\2017 Humanz [WPCR-17835-6]\CD1\01 Intro – I Switched My Robot Off.wav

Pre-gap length 0:00:02.00

Peak level 55.9 %
Extraction speed 2.2 X
Track quality 100.0 %
Test CRC 897442D5
Copy CRC 897442D5
Track not present in AccurateRip database
Copy OK

Track 2

Filename C:\heirloom rips\Gorillaz\2017 Humanz [WPCR-17835-6]\CD1\02 Ascension (feat. Vince Staples).wav

Peak level 99.8 %
Extraction speed 4.8 X
Track quality 100.0 %
Test CRC C61B1025
Copy CRC C61B1025
Track not present in AccurateRip database
Copy OK

Track 3

Filename C:\heirloom rips\Gorillaz\2017 Humanz [WPCR-17835-6]\CD1\03 Strobelite (feat. Peven Everett).wav

Peak level 100.0 %
Extraction speed 5.7 X
Track quality 100.0 %
Test CRC 311D2B61
Copy CRC 311D2B61
Track not present in AccurateRip database
Copy OK

Track 4

Filename C:\heirloom rips\Gorillaz\2017 Humanz [WPCR-17835-6]\CD1\04 Saturnz Barz (feat. Popcaan).wav

Peak level 98.9 %
Extraction speed 4.7 X
Track quality 99.9 %
Test CRC CD1A5712
Copy CRC CD1A5712
Track not present in AccurateRip database
Copy OK

Track 5

Filename C:\heirloom rips\Gorillaz\2017 Humanz [WPCR-17835-6]\CD1\05 Momentz (feat. De La Soul).wav

Peak level 100.0 %
Extraction speed 6.2 X
Track quality 100.0 %
Test CRC 6B7BCF98
Copy CRC 6B7BCF98
Track not present in AccurateRip database
Copy OK

Track 6

Filename C:\heirloom rips\Gorillaz\2017 Humanz [WPCR-17835-6]\CD1\06 Interlude – The Non-conformist Oath.wav

Peak level 98.5 %
Extraction speed 1.4 X
Track quality 99.5 %
Test CRC 7EF2D90E
Copy CRC 7EF2D90E
Track not present in AccurateRip database
Copy OK

Track 7

Filename C:\heirloom rips\Gorillaz\2017 Humanz [WPCR-17835-6]\CD1\07 Submission (feat. Danny Brown & Kelela).wav

Peak level 99.8 %
Extraction speed 6.5 X
Track quality 100.0 %
Test CRC 302659CB
Copy CRC 302659CB
Track not present in AccurateRip database
Copy OK

Track 8

Filename C:\heirloom rips\Gorillaz\2017 Humanz [WPCR-17835-6]\CD1\08 Charger (feat. Grace Jones).wav

Peak level 97.9 %
Extraction speed 6.9 X
Track quality 100.0 %
Test CRC 744F2D33
Copy CRC 744F2D33
Track not present in AccurateRip database
Copy OK

Track 9

Filename C:\heirloom rips\Gorillaz\2017 Humanz [WPCR-17835-6]\CD1\09 Interlude – Elevator Going Up.wav

Peak level 92.4 %
Extraction speed 0.9 X
Track quality 100.0 %
Test CRC C11C5217
Copy CRC C11C5217
Track not present in AccurateRip database
Copy OK

Track 10

Filename C:\heirloom rips\Gorillaz\2017 Humanz [WPCR-17835-6]\CD1\10 Andromeda (feat. D.R.A.M.) (for Ethel).wav

Peak level 97.9 %
Extraction speed 5.9 X
Track quality 99.9 %
Test CRC 4EE043EC
Copy CRC 4EE043EC
Track not present in AccurateRip database
Copy OK

Track 11

Filename C:\heirloom rips\Gorillaz\2017 Humanz [WPCR-17835-6]\CD1\11 Busted and Blue.wav

Peak level 87.3 %
Extraction speed 7.8 X
Track quality 100.0 %
Test CRC 1F5B956F
Copy CRC 1F5B956F
Track not present in AccurateRip database
Copy OK

Track 12

Filename C:\heirloom rips\Gorillaz\2017 Humanz [WPCR-17835-6]\CD1\12 Interlude – Talk Radio.wav

Peak level 91.4 %
Extraction speed 1.6 X
Track quality 99.4 %
Test CRC 6F96A39F
Copy CRC 6F96A39F
Track not present in AccurateRip database
Copy OK

Track 13

Filename C:\heirloom rips\Gorillaz\2017 Humanz [WPCR-17835-6]\CD1\13 Carnival (feat. Anthony Hamilton).wav

Peak level 97.7 %
Extraction speed 7.3 X
Track quality 100.0 %
Test CRC 09139933
Copy CRC 09139933
Track not present in AccurateRip database
Copy OK

Track 14

Filename C:\heirloom rips\Gorillaz\2017 Humanz [WPCR-17835-6]\CD1\14 Let Me Out (feat. Mavis Staples & Pusha T).wav

Peak level 99.2 %
Extraction speed 8.0 X
Track quality 100.0 %
Test CRC 0DDA8D27
Copy CRC 0DDA8D27
Track not present in AccurateRip database
Copy OK

Track 15

Filename C:\heirloom rips\Gorillaz\2017 Humanz [WPCR-17835-6]\CD1\15 Interlude – Penthouse.wav

Peak level 97.7 %
Extraction speed 2.2 X
Track quality 100.0 %
Test CRC 43F27A21
Copy CRC 43F27A21
Track not present in AccurateRip database
Copy OK

Track 16

Filename C:\heirloom rips\Gorillaz\2017 Humanz [WPCR-17835-6]\CD1\16 Sex Murder Party (feat. Jamie Principle & Zebra Katz).wav

Peak level 98.6 %
Extraction speed 8.9 X
Track quality 100.0 %
Test CRC FE9A01C8
Copy CRC FE9A01C8
Track not present in AccurateRip database
Copy OK

Track 17

Filename C:\heirloom rips\Gorillaz\2017 Humanz [WPCR-17835-6]\CD1\17 She’s My Collar (feat. Kalis Uchis).wav

Peak level 100.0 %
Extraction speed 9.0 X
Track quality 100.0 %
Test CRC 1B67F4B2
Copy CRC 1B67F4B2
Track not present in AccurateRip database
Copy OK

Track 18

Filename C:\heirloom rips\Gorillaz\2017 Humanz [WPCR-17835-6]\CD1\18 Interlude – The Elephant.wav

Peak level 54.6 %
Extraction speed 2.5 X
Track quality 100.0 %
Test CRC 8F0CB18E
Copy CRC 8F0CB18E
Track not present in AccurateRip database
Copy OK

Track 19

Filename C:\heirloom rips\Gorillaz\2017 Humanz [WPCR-17835-6]\CD1\19 Halleujah Money (feat. Benjamin Clementine).wav

Peak level 98.2 %
Extraction speed 9.0 X
Track quality 100.0 %
Test CRC 0CC243EB
Copy CRC 0CC243EB
Track not present in AccurateRip database
Copy OK

Track 20

Filename C:\heirloom rips\Gorillaz\2017 Humanz [WPCR-17835-6]\CD1\20 We Got the Power (Version 2-18-482) (feat. Jehnny Beth).wav

Peak level 100.0 %
Extraction speed 8.3 X
Track quality 100.0 %
Test CRC 262B4698
Copy CRC 262B4698
Track not present in AccurateRip database
Copy OK

None of the tracks are present in the AccurateRip database

No errors occurred

End of status report

—- CUETools DB Plugin V2.1.6

[CTDB TOCID: bgOXOs6JTfEW11eRqhQ4NO0h1LM-] found
Submit result: bgOXOs6JTfEW11eRqhQ4NO0h1LM- has been confirmed
Track | CTDB Status
1 | (1/1) Accurately ripped
2 | (1/1) Accurately ripped
3 | (1/1) Accurately ripped
4 | (1/1) Accurately ripped
5 | (1/1) Accurately ripped
6 | (1/1) Accurately ripped
7 | (1/1) Accurately ripped
8 | (1/1) Accurately ripped
9 | (1/1) Accurately ripped
10 | (1/1) Accurately ripped
11 | (1/1) Accurately ripped
12 | (1/1) Accurately ripped
13 | (1/1) Accurately ripped
14 | (1/1) Accurately ripped
15 | (1/1) Accurately ripped
16 | (1/1) Accurately ripped
17 | (1/1) Accurately ripped
18 | (1/1) Accurately ripped
19 | (1/1) Accurately ripped
20 | (1/1) Accurately ripped

==== Log checksum 9BEB879FF7C19F11F4571E3319AEC5180EFAE59925BBD854443DDEE11EF03DB8 ====

Exact Audio Copy V1.3 from 2. September 2016

EAC extraction logfile from 29. May 2017, 17:56

Gorillaz / Humanz

Used drive : PLEXTOR DVDR PX-L890SA Adapter: 1 ID: 1

Read mode : Secure
Utilize accurate stream : Yes
Defeat audio cache : Yes
Make use of C2 pointers : No

Read offset correction : 6
Overread into Lead-In and Lead-Out : No
Fill up missing offset samples with silence : Yes
Delete leading and trailing silent blocks : No
Null samples used in CRC calculations : Yes
Used interface : Native Win32 interface for Win NT & 2000
Gap handling : Appended to previous track

Used output format : User Defined Encoder
Selected bitrate : 1024 kBit/s
Quality : High
Add ID3 tag : No
Command line compressor : C:\Program Files (x86)\Exact Audio Copy\Flac\flac.exe
Additional command line options : -8 -e -p -V -T “ARTIST=%artist%” -T “TITLE=%title%” -T “ALBUM=%albumtitle%” -T “DATE=%year%” -T “TRACKNUMBER=%tracknr%” -T “GENRE=%genre%” -T “PERFORMER=%albuminterpret%” -T “COMPOSER=%composer%” %haslyrics%–tag-from-file=LYRICS=”%lyricsfile%”%haslyrics% -T “ALBUMARTIST=%albumartist%” -T “DISCNUMBER=%cdnumber%” -T “TOTALDISCS=%totalcds%” -T “TOTALTRACKS=%numtracks%” -T “COMMENT=%comment%” %source% -o %dest%

TOC of the extracted CD

Track | Start | Length | Start sector | End sector
———————————————————
1 | 0:00.00 | 1:22.74 | 0 | 6223
2 | 1:22.74 | 3:54.70 | 6224 | 23843
3 | 5:17.69 | 3:57.18 | 23844 | 41636
4 | 9:15.12 | 3:44.36 | 41637 | 58472
5 | 12:59.48 | 4:28.44 | 58473 | 78616
6 | 17:28.17 | 2:11.58 | 78617 | 88499
7 | 19:40.00 | 3:59.02 | 88500 | 106426
8 | 23:39.02 | 3:41.29 | 106427 | 123030

Track 1

Filename C:\heirloom rips\Gorillaz\2017 Humanz [WPCR-17835-6]\CD2\01 Interlude – New World.wav

Pre-gap length 0:00:02.00

Peak level 88.5 %
Extraction speed 2.8 X
Track quality 99.8 %
Test CRC D44EEDF8
Copy CRC D44EEDF8
Track not present in AccurateRip database
Copy OK

Track 2

Filename C:\heirloom rips\Gorillaz\2017 Humanz [WPCR-17835-6]\CD2\02 The Apprentice (feat. Rag’n’Bone Man, Zebra Katz & RAY BLK).wav

Peak level 98.1 %
Extraction speed 5.4 X
Track quality 100.0 %
Test CRC 56AA5D5F
Copy CRC 56AA5D5F
Track not present in AccurateRip database
Copy OK

Track 3

Filename C:\heirloom rips\Gorillaz\2017 Humanz [WPCR-17835-6]\CD2\03 Halfway to the Halfway (feat. Peven Everett).wav

Peak level 97.9 %
Extraction speed 5.8 X
Track quality 100.0 %
Test CRC DC2589A8
Copy CRC DC2589A8
Track not present in AccurateRip database
Copy OK

Track 4

Filename C:\heirloom rips\Gorillaz\2017 Humanz [WPCR-17835-6]\CD2\04 Out of Body (feat. Kilo Kish, Zebra Katz & Imani Vonshà).wav

Peak level 100.0 %
Extraction speed 6.2 X
Track quality 100.0 %
Test CRC AB03D814
Copy CRC AB03D814
Track not present in AccurateRip database
Copy OK

Track 5

Filename C:\heirloom rips\Gorillaz\2017 Humanz [WPCR-17835-6]\CD2\05 Ticker Tape (feat. Carly Simon & Kali Uchis).wav

Peak level 97.8 %
Extraction speed 5.8 X
Track quality 99.9 %
Test CRC 457903BB
Copy CRC 457903BB
Track not present in AccurateRip database
Copy OK

Track 6

Filename C:\heirloom rips\Gorillaz\2017 Humanz [WPCR-17835-6]\CD2\06 Circle of Friendz (feat. Brandon Markell Holmes).wav

Peak level 78.0 %
Extraction speed 4.8 X
Track quality 99.9 %
Test CRC 28F734A3
Copy CRC 28F734A3
Track not present in AccurateRip database
Copy OK

Track 7

Filename C:\heirloom rips\Gorillaz\2017 Humanz [WPCR-17835-6]\CD2\07 Andromeda – D.R.A.M. Special.wav

Pre-gap length 0:00:00.58

Peak level 98.7 %
Extraction speed 6.2 X
Track quality 99.9 %
Test CRC D896A436
Copy CRC D896A436
Track not present in AccurateRip database
Copy OK

Track 8

Filename C:\heirloom rips\Gorillaz\2017 Humanz [WPCR-17835-6]\CD2\08 Busted and Blue – Faia Younan Special.wav

Pre-gap length 0:00:01.58

Peak level 98.7 %
Extraction speed 7.6 X
Track quality 100.0 %
Test CRC 063CBF92
Copy CRC 063CBF92
Track not present in AccurateRip database
Copy OK

None of the tracks are present in the AccurateRip database

No errors occurred

End of status report

—- CUETools DB Plugin V2.1.6

[CTDB TOCID: nXy.qZSh73uj7co6r8LsnzdVBvU-] found
Submit result: nXy.qZSh73uj7co6r8LsnzdVBvU- has been confirmed
Track | CTDB Status
1 | (1/1) Accurately ripped
2 | (1/1) Accurately ripped
3 | (1/1) Accurately ripped
4 | (1/1) Accurately ripped
5 | (1/1) Accurately ripped
6 | (1/1) Accurately ripped
7 | (1/1) Accurately ripped
8 | (1/1) Accurately ripped

==== Log checksum DCA78903C50CC20D240128F0DEB941A73133342B1417EFACF9D5E23369F25218 ====

REM GENRE Electronic
REM DATE 2017
REM DISCID 0F0B9F14
REM COMMENT “ExactAudioCopy v1.3”
CATALOG 4943674262915
PERFORMER “Gorillaz”
TITLE “Humanz”
REM COMPOSER “”
FILE “01 Intro – I Switched My Robot Off.wav” WAVE
TRACK 01 AUDIO
TITLE “Intro – I Switched My Robot Off”
PERFORMER “Gorillaz”
REM COMPOSER “”
ISRC GBAYE1700160
INDEX 01 00:00:00
FILE “02 Ascension (feat. Vince Staples).wav” WAVE
TRACK 02 AUDIO
TITLE “Ascension (feat. Vince Staples)”
PERFORMER “Gorillaz”
REM COMPOSER “”
ISRC GBAYE1700161
INDEX 01 00:00:00
FILE “03 Strobelite (feat. Peven Everett).wav” WAVE
TRACK 03 AUDIO
TITLE “Strobelite (feat. Peven Everett)”
PERFORMER “Gorillaz”
REM COMPOSER “”
ISRC GBAYE1700162
INDEX 01 00:00:00
FILE “04 Saturnz Barz (feat. Popcaan).wav” WAVE
TRACK 04 AUDIO
TITLE “Saturnz Barz (feat. Popcaan)”
PERFORMER “Gorillaz”
REM COMPOSER “”
ISRC GBAYE1700163
INDEX 01 00:00:00
FILE “05 Momentz (feat. De La Soul).wav” WAVE
TRACK 05 AUDIO
TITLE “Momentz (feat. De La Soul)”
PERFORMER “Gorillaz”
REM COMPOSER “”
ISRC GBAYE1700164
INDEX 01 00:00:00
FILE “06 Interlude – The Non-conformist Oath.wav” WAVE
TRACK 06 AUDIO
TITLE “Interlude – The Non-conformist Oath”
PERFORMER “Gorillaz”
REM COMPOSER “”
ISRC GBAYE1700165
INDEX 01 00:00:00
FILE “07 Submission (feat. Danny Brown & Kelela).wav” WAVE
TRACK 07 AUDIO
TITLE “Submission (feat. Danny Brown & Kelela)”
PERFORMER “Gorillaz”
REM COMPOSER “”
ISRC GBAYE1700166
INDEX 01 00:00:00
FILE “08 Charger (feat. Grace Jones).wav” WAVE
TRACK 08 AUDIO
TITLE “Charger (feat. Grace Jones)”
PERFORMER “Gorillaz”
REM COMPOSER “”
ISRC GBAYE1700167
INDEX 01 00:00:00
FILE “09 Interlude – Elevator Going Up.wav” WAVE
TRACK 09 AUDIO
TITLE “Interlude – Elevator Going Up”
PERFORMER “Gorillaz”
REM COMPOSER “”
ISRC GBAYE1700168
INDEX 01 00:00:00
FILE “10 Andromeda (feat. D.R.A.M.) (for Ethel).wav” WAVE
TRACK 10 AUDIO
TITLE “Andromeda (feat. D.R.A.M.) (for Ethel)”
PERFORMER “Gorillaz”
REM COMPOSER “”
ISRC GBAYE1700169
INDEX 01 00:00:00
FILE “11 Busted and Blue.wav” WAVE
TRACK 11 AUDIO
TITLE “Busted and Blue ”
PERFORMER “Gorillaz”
REM COMPOSER “”
ISRC GBAYE1700170
INDEX 01 00:00:00
FILE “12 Interlude – Talk Radio.wav” WAVE
TRACK 12 AUDIO
TITLE “Interlude – Talk Radio”
PERFORMER “Gorillaz”
REM COMPOSER “”
ISRC GBAYE1700171
INDEX 01 00:00:00
FILE “13 Carnival (feat. Anthony Hamilton).wav” WAVE
TRACK 13 AUDIO
TITLE “Carnival (feat. Anthony Hamilton)”
PERFORMER “Gorillaz”
REM COMPOSER “”
ISRC GBAYE1700172
INDEX 01 00:00:00
FILE “14 Let Me Out (feat. Mavis Staples & Pusha T).wav” WAVE
TRACK 14 AUDIO
TITLE “Let Me Out (feat. Mavis Staples & Pusha T)”
PERFORMER “Gorillaz”
REM COMPOSER “”
ISRC GBAYE1700173
INDEX 01 00:00:00
FILE “15 Interlude – Penthouse.wav” WAVE
TRACK 15 AUDIO
TITLE “Interlude – Penthouse”
PERFORMER “Gorillaz”
REM COMPOSER “”
ISRC GBAYE1700174
INDEX 01 00:00:00
FILE “16 Sex Murder Party (feat. Jamie Principle & Zebra Katz).wav” WAVE
TRACK 16 AUDIO
TITLE “Sex Murder Party (feat. Jamie Principle & Zebra Katz)”
PERFORMER “Gorillaz”
REM COMPOSER “”
ISRC GBAYE1700175
INDEX 01 00:00:00
FILE “17 She’s My Collar (feat. Kalis Uchis).wav” WAVE
TRACK 17 AUDIO
TITLE “She’s My Collar (feat. Kalis Uchis)”
PERFORMER “Gorillaz”
REM COMPOSER “”
ISRC GBAYE1700176
INDEX 01 00:00:00
FILE “18 Interlude – The Elephant.wav” WAVE
TRACK 18 AUDIO
TITLE “Interlude – The Elephant”
PERFORMER “Gorillaz”
REM COMPOSER “”
ISRC GBAYE1700177
INDEX 01 00:00:00
FILE “19 Halleujah Money (feat. Benjamin Clementine).wav” WAVE
TRACK 19 AUDIO
TITLE “Halleujah Money (feat. Benjamin Clementine)”
PERFORMER “Gorillaz”
REM COMPOSER “”
ISRC GBAYE1700178
INDEX 01 00:00:00
FILE “20 We Got the Power (Version 2-18-482) (feat. Jehnny Beth).wav” WAVE
TRACK 20 AUDIO
TITLE “We Got the Power (Version 2:18:482) (feat. Jehnny Beth)”
PERFORMER “Gorillaz”
REM COMPOSER “”
ISRC GBAYE1700179
INDEX 01 00:00:00

REM GENRE Electronic
REM DATE 2017
REM DISCID 56066808
REM COMMENT “ExactAudioCopy v1.3”
CATALOG 4943674262915
PERFORMER “Gorillaz”
TITLE “Humanz”
REM COMPOSER “”
FILE “01 Interlude – New World.wav” WAVE
TRACK 01 AUDIO
TITLE “Interlude – New World”
PERFORMER “Gorillaz”
REM COMPOSER “”
ISRC GBAYE1700737
INDEX 01 00:00:00
FILE “02 The Apprentice (feat. Rag’n’Bone Man, Zebra Katz & RAY BLK).wav” WAVE
TRACK 02 AUDIO
TITLE “The Apprentice (feat. Rag’n’Bone Man, Zebra Katz & RAY BLK)”
PERFORMER “Gorillaz”
REM COMPOSER “”
ISRC GBAYE1700919
INDEX 01 00:00:00
FILE “03 Halfway to the Halfway House (feat. Peven Everett).wav” WAVE
TRACK 03 AUDIO
TITLE “Halfway to the Halfway House (feat. Peven Everett)”
PERFORMER “Gorillaz”
REM COMPOSER “”
ISRC GBAYE1700738
INDEX 01 00:00:00
FILE “04 Out of Body (feat. Kilo Kish, Zebra Katz & Imani Vonshà).wav” WAVE
TRACK 04 AUDIO
TITLE “Out of Body (feat. Kilo Kish, Zebra Katz & Imani Vonshà)”
PERFORMER “Gorillaz”
REM COMPOSER “”
ISRC GBAYE1700739
INDEX 01 00:00:00
FILE “05 Ticker Tape (feat. Carly Simon & Kali Uchis).wav” WAVE
TRACK 05 AUDIO
TITLE “Ticker Tape (feat. Carly Simon & Kali Uchis)”
PERFORMER “Gorillaz”
REM COMPOSER “”
ISRC GBAYE1700740
INDEX 01 00:00:00
FILE “06 Circle of Friendz (feat. Brandon Markell Holmes).wav” WAVE
TRACK 06 AUDIO
TITLE “Circle of Friendz (feat. Brandon Markell Holmes)”
PERFORMER “Gorillaz”
REM COMPOSER “”
ISRC GBAYE1700741
INDEX 01 00:00:00
TRACK 07 AUDIO
TITLE “Andromeda – D.R.A.M. Special”
PERFORMER “Gorillaz”
REM COMPOSER “”
ISRC GBAYE1701271
INDEX 00 02:11:14
FILE “07 Andromeda – D.R.A.M. Special.wav” WAVE
INDEX 01 00:00:00
TRACK 08 AUDIO
TITLE “Busted and Blue – Faia Younan Special”
PERFORMER “Gorillaz”
REM COMPOSER “”
ISRC GBAYE1701273
INDEX 00 03:57:33
FILE “08 Busted and Blue – Faia Younan Special.wav” WAVE
INDEX 01 00:00:00


Leave a Reply

Your email address will not be published. Required fields are marked *

This site uses Akismet to reduce spam. Learn how your comment data is processed.