Gorillaz – Gorillaz




Artist: Gorillaz
Year: 2001
Genre: Rock
Notes: Discogs
Add. Notes:
Encoder: FLAC
Bitrate: ~900 kBit/s (44.1 kHz/16 Bit/s)
Size: 389,04 MB
Password: “slam” (without ” “)


http://www.share-online.biz/dl/7X046NQP4W
https://rapidgator.net/file/bff9b59f5c67e14b4251ba49f0e7e37b
https://ayefiles.com/bb3vm2ezz46s/Gor-2001-Gor.rar.html
https://hitfile.net/1ZxNSZI


Onlinestatus: Turbobit.net Rapidgator.net AyeFiles.com Hitfile.net

Tracklist:

1 - Re-Hash 
2 - 5/4 
3 - Tomorrow Comes Today  
4 - New Genious (Brother)  
5 - Clint Eastwood 
6 - Man Research (Clapper) 
7 - Punk 
8 - Sound Check (Gravity) 
9 - Double Bass 
10 - Rock The House 
11 - 19-2000 -
12 - Latin Simone (Que Pasa Contigo) 
13 - Starshine 
14 - Slow Country 
15 - M1 A1

EAC-Log, CUE-Sheed & NFO:

Click to open spoiler
Exact Audio Copy V1.0 beta 3 from 29. August 2011

EAC extraction logfile from 12. January 2013, 19:38

Gorillaz / Gorillaz

Used drive : hp CDDVDW SN-208BB Adapter: 0 ID: 1

Read mode : Secure
Utilize accurate stream : Yes
Defeat audio cache : No
Make use of C2 pointers : No

Read offset correction : 6
Overread into Lead-In and Lead-Out : No
Fill up missing offset samples with silence : Yes
Delete leading and trailing silent blocks : No
Null samples used in CRC calculations : Yes
Used interface : Native Win32 interface for Win NT & 2000
Gap handling : Appended to previous track

Used output format : User Defined Encoder
Selected bitrate : 1024 kBit/s
Quality : High
Add ID3 tag : No
Command line compressor : C:\Program Files (x86)\Exact Audio Copy\FLAC\FLAC.EXE
Additional command line options : -8 -V -T “ARTIST=%artist%” -T “TITLE=%title%” -T “ALBUM=%albumtitle%” -T “DATE=%year%” -T “TRACKNUMBER=%tracknr2%/%numtracks%” -T “GENRE=%genre%” -T “COMMENT=%comment%” -T “ALBUMARTIST=%albuminterpret%” -T “COMPOSER=%composer%” -T “DISCNUMBER=%cdnumber%” -T “TOTALDISCS=%totalcds%” -T “TOTALTRACKS=%numtracks%” %hascover%–picture=”%coverfile%”%hascover% %source% -o %dest%

TOC of the extracted CD

Track | Start | Length | Start sector | End sector
———————————————————
1 | 0:00.00 | 3:38.30 | 0 | 16379
2 | 3:38.30 | 2:40.05 | 16380 | 28384
3 | 6:18.35 | 3:12.65 | 28385 | 42849
4 | 9:31.25 | 3:58.00 | 42850 | 60699
5 | 13:29.25 | 5:39.60 | 60700 | 86184
6 | 19:09.10 | 4:32.42 | 86185 | 106626
7 | 23:41.52 | 1:36.33 | 106627 | 113859
8 | 25:18.10 | 4:40.72 | 113860 | 134931
9 | 29:59.07 | 4:45.05 | 134932 | 156311
10 | 34:44.12 | 4:09.03 | 156312 | 174989
11 | 38:53.15 | 3:27.40 | 174990 | 190554
12 | 42:20.55 | 3:36.70 | 190555 | 206824
13 | 45:57.50 | 3:31.35 | 206825 | 222684
14 | 49:29.10 | 3:35.40 | 222685 | 238849
15 | 53:04.50 | 10:40.70 | 238850 | 286919

Track 1

Filename E:\RIP\EAC\Gorillaz\2001.Gorillaz\Gorillaz – 01.15 – Re-Hash.wav

Pre-gap length 0:00:02.00

Peak level 99.9 %
Extraction speed 1.9 X
Track quality 100.0 %
Copy CRC 3CD0AFBD
Accurately ripped (confidence 12) [4211B94C] (AR v1)
Copy OK

Track 2

Filename E:\RIP\EAC\Gorillaz\2001.Gorillaz\Gorillaz – 02.15 – 54.wav

Peak level 99.9 %
Extraction speed 2.2 X
Track quality 100.0 %
Copy CRC BC7491AB
Accurately ripped (confidence 12) [C2A4F974] (AR v1)
Copy OK

Track 3

Filename E:\RIP\EAC\Gorillaz\2001.Gorillaz\Gorillaz – 03.15 – Tomorrow Comes Today.wav

Peak level 99.9 %
Extraction speed 2.3 X
Track quality 99.9 %
Copy CRC 4257C7D5
Accurately ripped (confidence 13) [ADD59CC9] (AR v1)
Copy OK

Track 4

Filename E:\RIP\EAC\Gorillaz\2001.Gorillaz\Gorillaz – 04.15 – New Genious (Brother).wav

Peak level 99.9 %
Extraction speed 2.5 X
Track quality 100.0 %
Copy CRC 5F0CAD7D
Accurately ripped (confidence 13) [4C8E43FC] (AR v1)
Copy OK

Track 5

Filename E:\RIP\EAC\Gorillaz\2001.Gorillaz\Gorillaz – 05.15 – Clint Eastwood.wav

Peak level 99.9 %
Extraction speed 2.7 X
Track quality 100.0 %
Copy CRC 4F84AEE8
Accurately ripped (confidence 14) [F0AFA3F7] (AR v1)
Copy OK

Track 6

Filename E:\RIP\EAC\Gorillaz\2001.Gorillaz\Gorillaz – 06.15 – Man Research (Clapper).wav

Peak level 99.9 %
Extraction speed 2.9 X
Track quality 99.9 %
Copy CRC 5570EEBD
Accurately ripped (confidence 13) [5D90C1E7] (AR v1)
Copy OK

Track 7

Filename E:\RIP\EAC\Gorillaz\2001.Gorillaz\Gorillaz – 07.15 – Punk.wav

Peak level 99.9 %
Extraction speed 2.9 X
Track quality 100.0 %
Copy CRC EAF94443
Accurately ripped (confidence 13) [881ADB5C] (AR v1)
Copy OK

Track 8

Filename E:\RIP\EAC\Gorillaz\2001.Gorillaz\Gorillaz – 08.15 – Sound Check (Gravity).wav

Pre-gap length 0:00:02.43

Peak level 99.9 %
Extraction speed 3.1 X
Track quality 100.0 %
Copy CRC 00FF611B
Accurately ripped (confidence 13) [6B08C56F] (AR v1)
Copy OK

Track 9

Filename E:\RIP\EAC\Gorillaz\2001.Gorillaz\Gorillaz – 09.15 – Double Bass.wav

Pre-gap length 0:00:01.15

Peak level 100.0 %
Extraction speed 3.3 X
Track quality 100.0 %
Copy CRC C211F774
Accurately ripped (confidence 13) [243D9B22] (AR v1)
Copy OK

Track 10

Filename E:\RIP\EAC\Gorillaz\2001.Gorillaz\Gorillaz – 10.15 – Rock The House.wav

Peak level 99.9 %
Extraction speed 3.4 X
Track quality 100.0 %
Copy CRC EA956108
Accurately ripped (confidence 13) [CAACAEFC] (AR v1)
Copy OK

Track 11

Filename E:\RIP\EAC\Gorillaz\2001.Gorillaz\Gorillaz – 11.15 – 19-2000.wav

Peak level 99.9 %
Extraction speed 3.5 X
Track quality 100.0 %
Copy CRC 5506D7F3
Accurately ripped (confidence 13) [D6A1ADE5] (AR v1)
Copy OK

Track 12

Filename E:\RIP\EAC\Gorillaz\2001.Gorillaz\Gorillaz – 12.15 – Latin Simone (Que Pasa Contigo).wav

Peak level 97.9 %
Extraction speed 3.5 X
Track quality 99.9 %
Copy CRC 8AB9EC1F
Accurately ripped (confidence 11) [EFEAF9C9] (AR v1)
Copy OK

Track 13

Filename E:\RIP\EAC\Gorillaz\2001.Gorillaz\Gorillaz – 13.15 – Starshine.wav

Peak level 99.9 %
Extraction speed 3.7 X
Track quality 99.9 %
Copy CRC 1C3428C5
Accurately ripped (confidence 12) [C82A65A0] (AR v1)
Copy OK

Track 14

Filename E:\RIP\EAC\Gorillaz\2001.Gorillaz\Gorillaz – 14.15 – Slow Country.wav

Peak level 99.9 %
Extraction speed 3.8 X
Track quality 100.0 %
Copy CRC B4F449BE
Accurately ripped (confidence 11) [A886F748] (AR v1)
Copy OK

Track 15

Filename E:\RIP\EAC\Gorillaz\2001.Gorillaz\Gorillaz – 15.15 – M1A1.wav

Peak level 99.9 %
Extraction speed 4.1 X
Track quality 100.0 %
Copy CRC 76A09243
Accurately ripped (confidence 10) [F1AA6967] (AR v1)
Copy OK

All tracks accurately ripped

No errors occurred

End of status report

—- CUETools DB Plugin V2.1.3

[CTDB TOCID: .Z5HqtFfCxvkjt9i_5w_jfTZnps-] found, Submit result: .Z5HqtFfCxvkjt9i_5w_jfTZnps- has been confirmed
[947c4765] (8/9) Accurately ripped
[267d8b4c] (1/9) No match

==== Log checksum B815488C27D7D848E06034CB72A45984446614662AFFE1037C56A2BF072AB65B ====

REM GENRE Electronic
REM DATE 2001
REM DISCID B40EF10F
REM COMMENT “ExactAudioCopy v1.0b3”
PERFORMER “Gorillaz”
TITLE “Gorillaz”
FILE “Gorillaz\2001.Gorillaz\Gorillaz – 01.15 – Re-Hash.wav” WAVE
TRACK 01 AUDIO
TITLE “Re-Hash”
PERFORMER “Gorillaz”
ISRC GBAYE0001407
INDEX 01 00:00:00
FILE “Gorillaz\2001.Gorillaz\Gorillaz – 02.15 – 54.wav” WAVE
TRACK 02 AUDIO
TITLE “5/4”
PERFORMER “Gorillaz”
ISRC GBAYE0001409
INDEX 01 00:00:00
FILE “Gorillaz\2001.Gorillaz\Gorillaz – 03.15 – Tomorrow Comes Today.wav” WAVE
TRACK 03 AUDIO
TITLE “Tomorrow Comes Today”
PERFORMER “Gorillaz”
ISRC GBAYE0000724
INDEX 01 00:00:00
FILE “Gorillaz\2001.Gorillaz\Gorillaz – 04.15 – New Genious (Brother).wav” WAVE
TRACK 04 AUDIO
TITLE “New Genious (Brother)”
PERFORMER “Gorillaz”
ISRC GBAYE0001451
INDEX 01 00:00:00
FILE “Gorillaz\2001.Gorillaz\Gorillaz – 05.15 – Clint Eastwood.wav” WAVE
TRACK 05 AUDIO
TITLE “Clint Eastwood”
PERFORMER “Gorillaz”
ISRC GBAYE0001408
INDEX 01 00:00:00
FILE “Gorillaz\2001.Gorillaz\Gorillaz – 06.15 – Man Research (Clapper).wav” WAVE
TRACK 06 AUDIO
TITLE “Man Research (Clapper)”
PERFORMER “Gorillaz”
ISRC GBAYE0001452
INDEX 01 00:00:00
FILE “Gorillaz\2001.Gorillaz\Gorillaz – 07.15 – Punk.wav” WAVE
TRACK 07 AUDIO
TITLE “Punk”
PERFORMER “Gorillaz”
ISRC GBAYE0001453
INDEX 01 00:00:00
TRACK 08 AUDIO
TITLE “Sound Check (Gravity)”
PERFORMER “Gorillaz”
ISRC GBAYE0001454
INDEX 00 01:33:65
FILE “Gorillaz\2001.Gorillaz\Gorillaz – 08.15 – Sound Check (Gravity).wav” WAVE
INDEX 01 00:00:00
TRACK 09 AUDIO
TITLE “Double Bass”
PERFORMER “Gorillaz”
ISRC GBAYE0001455
INDEX 00 04:39:57
FILE “Gorillaz\2001.Gorillaz\Gorillaz – 09.15 – Double Bass.wav” WAVE
INDEX 01 00:00:00
FILE “Gorillaz\2001.Gorillaz\Gorillaz – 10.15 – Rock The House.wav” WAVE
TRACK 10 AUDIO
TITLE “Rock The House”
PERFORMER “Gorillaz”
ISRC GBAYE0000771
INDEX 01 00:00:00
FILE “Gorillaz\2001.Gorillaz\Gorillaz – 11.15 – 19-2000.wav” WAVE
TRACK 11 AUDIO
TITLE “19-2000”
PERFORMER “Gorillaz”
ISRC GBAYE0001456
INDEX 01 00:00:00
FILE “Gorillaz\2001.Gorillaz\Gorillaz – 12.15 – Latin Simone (Que Pasa Contigo).wav” WAVE
TRACK 12 AUDIO
TITLE “Latin Simone (Que Pasa Contigo)”
PERFORMER “Gorillaz”
ISRC GBAYE0001420
INDEX 01 00:00:00
FILE “Gorillaz\2001.Gorillaz\Gorillaz – 13.15 – Starshine.wav” WAVE
TRACK 13 AUDIO
TITLE “Starshine”
PERFORMER “Gorillaz”
ISRC GBAYE0001457
INDEX 01 00:00:00
FILE “Gorillaz\2001.Gorillaz\Gorillaz – 14.15 – Slow Country.wav” WAVE
TRACK 14 AUDIO
TITLE “Slow Country”
PERFORMER “Gorillaz”
ISRC GBAYE0001410
INDEX 01 00:00:00
FILE “Gorillaz\2001.Gorillaz\Gorillaz – 15.15 – M1A1.wav” WAVE
TRACK 15 AUDIO
TITLE “M1A1”
PERFORMER “Gorillaz”
ISRC GBAYE0001458
INDEX 01 00:00:00

Leave a Reply

Your email address will not be published. Required fields are marked *

This site uses Akismet to reduce spam. Learn how your comment data is processed.