Gorillaz – Gorillaz [US] (Reissue)




Artist: Gorillaz
Year: 2001/2002
Genre: Rock
Notes: Discogs
Add. Notes: Reissue
Cover incl.: Yes
Encoder: FLAC
Bitrate: ~800 kBit/s (44.1 kHz/16 Bit/s)
Log & Cue incl.: Yes
Size: 442,6 MB
Password: “slam” (without ” “)


All Downloads/Hosters are compatible

Download 1
Turbobit.net
Rapidgator.net
UploadEver.com
JustUpload.io
UsersDrive.com
Download 2
Turbobit.net
Rapidgator.net
UploadEver.com
JustUpload.io
UsersDrive.com
Download 3
Turbobit.net
Rapidgator.net
UploadEver.com
JustUpload.io
UsersDrive.com

Tracklist:

1 - Re-Hash - 3:38
2 - 5/4 - 2:40
3 - Tomorrow Comes Today - 3:12
4 - New Genious (Brother) - 3:57
5 - Clint Eastwood - 5:40
6 - Man Research (Clapper) - 4:32
7 - Punk - 1:36
8 - Sound Check (Gravity) - 4:40
9 - Double Bass - 4:44
10 - Rock The House - 4:09
11 - 19-2000 - 3:27
12 - Latin Simone (Que Pasa Contigo) - 3:36
13 - Starshine - 3:31
14 - Slow Country - 3:35
15 - M1 A1 - 3:49
16 - Dracula - 4:42
17 - Left Hand Suzuki Method - 3:08
18 - 19-2000 (Soulchild Remix) - 3:29
19 - Clint Eastwood (Ed Case Refix) - 4:30

EAC-Log, CUE-Sheed & NFO:

Click to open spoiler
REM GENRE Rock
REM DATE 2001
REM DISCID 0A110A13
REM COMMENT “ExactAudioCopy v0.99pb5”
PERFORMER “Gorillaz”
TITLE “Gorillaz”
FILE “01 – Re-Hash.wav” WAVE
TRACK 01 AUDIO
TITLE “Re-Hash”
PERFORMER “Gorillaz”
INDEX 01 00:00:00
FILE “02 – 5,4.wav” WAVE
TRACK 02 AUDIO
TITLE “5/4”
PERFORMER “Gorillaz”
INDEX 01 00:00:00
FILE “03 – Tomorrow Comes Today.wav” WAVE
TRACK 03 AUDIO
TITLE “Tomorrow Comes Today”
PERFORMER “Gorillaz”
INDEX 01 00:00:00
FILE “04 – New Genious (Brother).wav” WAVE
TRACK 04 AUDIO
TITLE “New Genious (Brother)”
PERFORMER “Gorillaz”
INDEX 01 00:00:00
FILE “05 – Clint Eastwood.wav” WAVE
TRACK 05 AUDIO
TITLE “Clint Eastwood”
PERFORMER “Gorillaz”
INDEX 01 00:00:00
FILE “06 – Man Research (Clapper).wav” WAVE
TRACK 06 AUDIO
TITLE “Man Research (Clapper)”
PERFORMER “Gorillaz”
INDEX 01 00:00:00
FILE “07 – Punk.wav” WAVE
TRACK 07 AUDIO
TITLE “Punk”
PERFORMER “Gorillaz”
INDEX 01 00:00:00
FILE “08 – Sound Check (Gravity).wav” WAVE
TRACK 08 AUDIO
TITLE “Sound Check (Gravity)”
PERFORMER “Gorillaz”
INDEX 01 00:00:00
FILE “09 – Double Bass.wav” WAVE
TRACK 09 AUDIO
TITLE “Double Bass”
PERFORMER “Gorillaz”
INDEX 01 00:00:00
FILE “10 – Rock The House.wav” WAVE
TRACK 10 AUDIO
TITLE “Rock The House”
PERFORMER “Gorillaz”
INDEX 01 00:00:00
FILE “11 – 19-2000.wav” WAVE
TRACK 11 AUDIO
TITLE “19-2000”
PERFORMER “Gorillaz”
INDEX 01 00:00:00
FILE “12 – Latin Simone (Que Pasa Contigo).wav” WAVE
TRACK 12 AUDIO
TITLE “Latin Simone (Que Pasa Contigo)”
PERFORMER “Gorillaz”
INDEX 01 00:00:00
FILE “13 – Starshine.wav” WAVE
TRACK 13 AUDIO
TITLE “Starshine”
PERFORMER “Gorillaz”
INDEX 01 00:00:00
FILE “14 – Slow Country.wav” WAVE
TRACK 14 AUDIO
TITLE “Slow Country”
PERFORMER “Gorillaz”
INDEX 01 00:00:00
FILE “15 – M1 A1.wav” WAVE
TRACK 15 AUDIO
TITLE “M1 A1”
PERFORMER “Gorillaz”
INDEX 01 00:00:00
FILE “16 – Dracula.wav” WAVE
TRACK 16 AUDIO
TITLE “Dracula”
PERFORMER “Gorillaz”
INDEX 01 00:00:00
FILE “17 – Left Hand Suzuki Method.wav” WAVE
TRACK 17 AUDIO
TITLE “Left Hand Suzuki Method”
PERFORMER “Gorillaz”
INDEX 01 00:00:00
FILE “18 – 19-2000 (Soul Child Remix).wav” WAVE
TRACK 18 AUDIO
TITLE “19-2000 (Soul Child Remix)”
PERFORMER “Gorillaz”
INDEX 01 00:00:00
FILE “19 – Clint Eastwood (Ed Case Refix).wav” WAVE
TRACK 19 AUDIO
TITLE “Clint Eastwood (Ed Case Refix)”
PERFORMER “Gorillaz”
INDEX 01 00:00:00

Exact Audio Copy V0.99 prebeta 5 from 4. May 2009

EAC extraction logfile from 20. August 2009, 15:00

Gorillaz / Gorillaz

Used drive : Optiarc DVD RW AD-7200S Adapter: 0 ID: 0

Read mode : Secure
Utilize accurate stream : Yes
Defeat audio cache : Yes
Make use of C2 pointers : No

Read offset correction : 48
Overread into Lead-In and Lead-Out : No
Fill up missing offset samples with silence : Yes
Delete leading and trailing silent blocks : No
Null samples used in CRC calculations : Yes
Used interface : Native Win32 interface for Win NT & 2000
Gap handling : Appended to previous track

Used output format : User Defined Encoder
Selected bitrate : 320 kBit/s
Quality : High
Add ID3 tag : No
Command line compressor : C:\Program Files\Exact Audio Copy\Flac\flac.exe
Additional command line options : -6 -V -T “ARTIST=%a” -T “TITLE=%t” -T “ALBUM=%g” -T “DATE=%y” -T “TRACKNUMBER=%n” -T “GENRE=%m” -T “COMMENT=%e” %s -o %d

TOC of the extracted CD

Track | Start | Length | Start sector | End sector
———————————————————
1 | 0:00.00 | 3:38.27 | 0 | 16376
2 | 3:38.27 | 2:40.08 | 16377 | 28384
3 | 6:18.35 | 3:12.65 | 28385 | 42849
4 | 9:31.25 | 3:57.70 | 42850 | 60694
5 | 13:29.20 | 5:40.10 | 60695 | 86204
6 | 19:09.30 | 4:32.22 | 86205 | 106626
7 | 23:41.52 | 1:36.48 | 106627 | 113874
8 | 25:18.25 | 4:40.65 | 113875 | 134939
9 | 29:59.15 | 4:44.72 | 134940 | 156311
10 | 34:44.12 | 4:09.00 | 156312 | 174986
11 | 38:53.12 | 3:27.40 | 174987 | 190551
12 | 42:20.52 | 3:36.70 | 190552 | 206821
13 | 45:57.47 | 3:31.35 | 206822 | 222681
14 | 49:29.07 | 3:35.58 | 222682 | 238864
15 | 53:04.65 | 3:49.30 | 238865 | 256069
16 | 56:54.20 | 4:42.22 | 256070 | 277241
17 | 61:36.42 | 3:08.38 | 277242 | 291379
18 | 64:45.05 | 3:29.30 | 291380 | 307084
19 | 68:14.35 | 4:28.20 | 307085 | 327204

Track 1

Filename C:\Recovered Files\Audio\Gorillaz\Albums\2002 – Gorillaz (US Reissue) (7243 5 33748 0 8)\01 – Re-Hash.wav

Pre-gap length 0:00:02.00

Peak level 99.9 %
Track quality 100.0 %
Test CRC 3590C6C5
Copy CRC 3590C6C5
Accurately ripped (confidence 6) [EB875A51]
Copy OK

Track 2

Filename C:\Recovered Files\Audio\Gorillaz\Albums\2002 – Gorillaz (US Reissue) (7243 5 33748 0 8)\02 – 5,4.wav

Peak level 99.9 %
Track quality 100.0 %
Test CRC 922665DB
Copy CRC 922665DB
Accurately ripped (confidence 7) [EF9F5560]
Copy OK

Track 3

Filename C:\Recovered Files\Audio\Gorillaz\Albums\2002 – Gorillaz (US Reissue) (7243 5 33748 0 8)\03 – Tomorrow Comes Today.wav

Peak level 99.9 %
Track quality 100.0 %
Test CRC 66186753
Copy CRC 66186753
Accurately ripped (confidence 7) [4F911A7E]
Copy OK

Track 4

Filename C:\Recovered Files\Audio\Gorillaz\Albums\2002 – Gorillaz (US Reissue) (7243 5 33748 0 8)\04 – New Genious (Brother).wav

Peak level 99.9 %
Track quality 100.0 %
Test CRC BB5C3990
Copy CRC BB5C3990
Accurately ripped (confidence 7) [2FB878BE]
Copy OK

Track 5

Filename C:\Recovered Files\Audio\Gorillaz\Albums\2002 – Gorillaz (US Reissue) (7243 5 33748 0 8)\05 – Clint Eastwood.wav

Peak level 99.9 %
Track quality 100.0 %
Test CRC ED569B75
Copy CRC ED569B75
Accurately ripped (confidence 7) [67652E89]
Copy OK

Track 6

Filename C:\Recovered Files\Audio\Gorillaz\Albums\2002 – Gorillaz (US Reissue) (7243 5 33748 0 8)\06 – Man Research (Clapper).wav

Peak level 99.9 %
Track quality 99.9 %
Test CRC 156FE6D3
Copy CRC 156FE6D3
Accurately ripped (confidence 7) [C516631A]
Copy OK

Track 7

Filename C:\Recovered Files\Audio\Gorillaz\Albums\2002 – Gorillaz (US Reissue) (7243 5 33748 0 8)\07 – Punk.wav

Peak level 99.9 %
Track quality 99.8 %
Test CRC 12DEC41F
Copy CRC 12DEC41F
Accurately ripped (confidence 7) [D32BFFE7]
Copy OK

Track 8

Filename C:\Recovered Files\Audio\Gorillaz\Albums\2002 – Gorillaz (US Reissue) (7243 5 33748 0 8)\08 – Sound Check (Gravity).wav

Peak level 99.9 %
Track quality 100.0 %
Test CRC 6E562F81
Copy CRC 6E562F81
Accurately ripped (confidence 7) [AE55AB17]
Copy OK

Track 9

Filename C:\Recovered Files\Audio\Gorillaz\Albums\2002 – Gorillaz (US Reissue) (7243 5 33748 0 8)\09 – Double Bass.wav

Peak level 100.0 %
Track quality 100.0 %
Test CRC D242F1C8
Copy CRC D242F1C8
Accurately ripped (confidence 7) [18EDC490]
Copy OK

Track 10

Filename C:\Recovered Files\Audio\Gorillaz\Albums\2002 – Gorillaz (US Reissue) (7243 5 33748 0 8)\10 – Rock The House.wav

Peak level 99.9 %
Track quality 100.0 %
Test CRC 75E8879B
Copy CRC 75E8879B
Accurately ripped (confidence 7) [881ED3CE]
Copy OK

Track 11

Filename C:\Recovered Files\Audio\Gorillaz\Albums\2002 – Gorillaz (US Reissue) (7243 5 33748 0 8)\11 – 19-2000.wav

Peak level 99.9 %
Track quality 99.9 %
Test CRC 4D67189D
Copy CRC 4D67189D
Accurately ripped (confidence 7) [E8643C95]
Copy OK

Track 12

Filename C:\Recovered Files\Audio\Gorillaz\Albums\2002 – Gorillaz (US Reissue) (7243 5 33748 0 8)\12 – Latin Simone (Que Pasa Contigo).wav

Peak level 97.9 %
Track quality 100.0 %
Test CRC BB3C3121
Copy CRC BB3C3121
Accurately ripped (confidence 7) [B62A12C5]
Copy OK

Track 13

Filename C:\Recovered Files\Audio\Gorillaz\Albums\2002 – Gorillaz (US Reissue) (7243 5 33748 0 8)\13 – Starshine.wav

Peak level 99.9 %
Track quality 100.0 %
Test CRC 6E89EE67
Copy CRC 6E89EE67
Accurately ripped (confidence 7) [B1915DA3]
Copy OK

Track 14

Filename C:\Recovered Files\Audio\Gorillaz\Albums\2002 – Gorillaz (US Reissue) (7243 5 33748 0 8)\14 – Slow Country.wav

Peak level 99.9 %
Track quality 100.0 %
Test CRC FA14C17C
Copy CRC FA14C17C
Accurately ripped (confidence 7) [3B04FF9C]
Copy OK

Track 15

Filename C:\Recovered Files\Audio\Gorillaz\Albums\2002 – Gorillaz (US Reissue) (7243 5 33748 0 8)\15 – M1 A1.wav

Peak level 99.9 %
Track quality 100.0 %
Test CRC 8BEAA343
Copy CRC 8BEAA343
Accurately ripped (confidence 7) [97D146F8]
Copy OK

Track 16

Filename C:\Recovered Files\Audio\Gorillaz\Albums\2002 – Gorillaz (US Reissue) (7243 5 33748 0 8)\16 – Dracula.wav

Peak level 99.9 %
Track quality 100.0 %
Test CRC FB537E23
Copy CRC FB537E23
Accurately ripped (confidence 8) [FA7DF347]
Copy OK

Track 17

Filename C:\Recovered Files\Audio\Gorillaz\Albums\2002 – Gorillaz (US Reissue) (7243 5 33748 0 8)\17 – Left Hand Suzuki Method.wav

Peak level 99.9 %
Track quality 100.0 %
Test CRC E6574D39
Copy CRC E6574D39
Accurately ripped (confidence 8) [137D5AFB]
Copy OK

Track 18

Filename C:\Recovered Files\Audio\Gorillaz\Albums\2002 – Gorillaz (US Reissue) (7243 5 33748 0 8)\18 – 19-2000 (Soul Child Remix).wav

Peak level 96.6 %
Track quality 100.0 %
Test CRC BCDDF779
Copy CRC BCDDF779
Accurately ripped (confidence 7) [C66F5304]
Copy OK

Track 19

Filename C:\Recovered Files\Audio\Gorillaz\Albums\2002 – Gorillaz (US Reissue) (7243 5 33748 0 8)\19 – Clint Eastwood (Ed Case Refix).wav

Peak level 97.1 %
Track quality 100.0 %
Test CRC C42B4425
Copy CRC C42B4425
Accurately ripped (confidence 7) [72BB14C5]
Copy OK

All tracks accurately ripped

No errors occurred

End of status report

Leave a Reply

Your email address will not be published. Required fields are marked *

Enter the text from the image below
 

This site uses Akismet to reduce spam. Learn how your comment data is processed.