Gorillaz – G-Sides




Artist: Gorillaz
Year: 2002
Genre: Rock
Notes: Discogs
Add. Notes:
Encoder: FLAC
Bitrate: ~800 kBit/s (44.1 kHz/16 Bit/s)
Size: 221,9 MB
Password: “slam” (without ” “)


http://www.share-online.biz/dl/KSS56NQP3D8Y
https://rapidgator.net/file/6405f8c7bb0e10a16e8845cb9bc599dd
https://ayefiles.com/vifnglk343hc/Gor-2002-G-Sid.rar.html
https://hitfile.net/u3muH0H


Onlinestatus: Turbobit.net Rapidgator.net AyeFiles.com Hitfile.net

Tracklist:

1 - 19-2000 (Soulchild Remix) - 3:30
2 - Latin Simone (Que Pasa Contigo) - 3:38
3 - 19-2000 (Wiseguys House Of Wisdom Remix) - 7:15
4 - The Sounder (Edit) - 4:30
5 - Faust - 3:52
6 - Clint Eastwood (Phi Life Cypher Version) - 4:54
7 - Ghost Train - 3:56
8 - Hip Albatross - 2:45
9 - 12D3 - 3:25

EAC-Log, CUE-Sheed & NFO:

Click to open spoiler
Exact Audio Copy V0.99 prebeta 5 from 4. May 2009

EAC extraction logfile from 20. August 2009, 16:37

Gorillaz / G Sides

Used drive : Optiarc DVD RW AD-7200S Adapter: 0 ID: 0

Read mode : Secure
Utilize accurate stream : Yes
Defeat audio cache : Yes
Make use of C2 pointers : No

Read offset correction : 48
Overread into Lead-In and Lead-Out : No
Fill up missing offset samples with silence : Yes
Delete leading and trailing silent blocks : No
Null samples used in CRC calculations : Yes
Used interface : Native Win32 interface for Win NT & 2000
Gap handling : Appended to previous track

Used output format : User Defined Encoder
Selected bitrate : 320 kBit/s
Quality : High
Add ID3 tag : No
Command line compressor : C:\Program Files\Exact Audio Copy\Flac\flac.exe
Additional command line options : -6 -V -T “ARTIST=%a” -T “TITLE=%t” -T “ALBUM=%g” -T “DATE=%y” -T “TRACKNUMBER=%n” -T “GENRE=%m” -T “COMMENT=%e” %s -o %d

TOC of the extracted CD

Track | Start | Length | Start sector | End sector
———————————————————
1 | 0:00.00 | 3:30.25 | 0 | 15774
2 | 3:30.25 | 3:38.05 | 15775 | 32129
3 | 7:08.30 | 7:15.22 | 32130 | 64776
4 | 14:23.52 | 4:29.43 | 64777 | 84994
5 | 18:53.20 | 3:51.47 | 84995 | 102366
6 | 22:44.67 | 4:54.08 | 102367 | 124424
7 | 27:39.00 | 3:56.22 | 124425 | 142146
8 | 31:35.22 | 2:45.05 | 142147 | 154526
9 | 34:20.27 | 3:24.55 | 154527 | 169881

Track 1

Filename C:\Recovered Files\Audio\Gorillaz\Albums\2002 – G-Sides (7243 8 11967 2 4)\01 – 19-2000 (Soulchild Remix).wav

Pre-gap length 0:00:02.00

Peak level 97.9 %
Track quality 100.0 %
Test CRC 479D97F1
Copy CRC 479D97F1
Accurately ripped (confidence 71) [313452D6]
Copy OK

Track 2

Filename C:\Recovered Files\Audio\Gorillaz\Albums\2002 – G-Sides (7243 8 11967 2 4)\02 – Latin Simone (Que Pasa Contigo).wav

Pre-gap length 0:00:02.57

Peak level 99.9 %
Track quality 100.0 %
Test CRC 959EA9FF
Copy CRC 959EA9FF
Accurately ripped (confidence 70) [B2943686]
Copy OK

Track 3

Filename C:\Recovered Files\Audio\Gorillaz\Albums\2002 – G-Sides (7243 8 11967 2 4)\03 – 19-2000 (The Wiseguys House Of Wisdom Remix).wav

Peak level 97.9 %
Track quality 100.0 %
Test CRC 4F10ED2E
Copy CRC 4F10ED2E
Accurately ripped (confidence 69) [EB88F6EF]
Copy OK

Track 4

Filename C:\Recovered Files\Audio\Gorillaz\Albums\2002 – G-Sides (7243 8 11967 2 4)\04 – The Sounder (Edit).wav

Pre-gap length 0:00:01.56

Peak level 97.9 %
Track quality 100.0 %
Test CRC B5EBE479
Copy CRC B5EBE479
Accurately ripped (confidence 71) [43092E48]
Copy OK

Track 5

Filename C:\Recovered Files\Audio\Gorillaz\Albums\2002 – G-Sides (7243 8 11967 2 4)\05 – Faust.wav

Pre-gap length 0:00:01.60

Peak level 98.0 %
Track quality 100.0 %
Test CRC 9898165A
Copy CRC 9898165A
Accurately ripped (confidence 71) [36BF3F6C]
Copy OK

Track 6

Filename C:\Recovered Files\Audio\Gorillaz\Albums\2002 – G-Sides (7243 8 11967 2 4)\06 – Clint Eastwood (Phi Life Cypher Version).wav

Pre-gap length 0:00:01.89

Peak level 97.9 %
Track quality 100.0 %
Test CRC 3C97086F
Copy CRC 3C97086F
Accurately ripped (confidence 70) [98304582]
Copy OK

Track 7

Filename C:\Recovered Files\Audio\Gorillaz\Albums\2002 – G-Sides (7243 8 11967 2 4)\07 – Ghost Train.wav

Pre-gap length 0:00:03.17

Peak level 98.0 %
Track quality 100.0 %
Test CRC 5FF77E34
Copy CRC 5FF77E34
Accurately ripped (confidence 70) [FC3E14E4]
Copy OK

Track 8

Filename C:\Recovered Files\Audio\Gorillaz\Albums\2002 – G-Sides (7243 8 11967 2 4)\08 – Hip Albatross.wav

Pre-gap length 0:00:03.62

Peak level 97.9 %
Track quality 100.0 %
Test CRC 87E398AD
Copy CRC 87E398AD
Accurately ripped (confidence 71) [5BE9F09F]
Copy OK

Track 9

Filename C:\Recovered Files\Audio\Gorillaz\Albums\2002 – G-Sides (7243 8 11967 2 4)\09 – 12D3.wav

Pre-gap length 0:00:03.42

Peak level 98.0 %
Track quality 100.0 %
Test CRC 0436FA17
Copy CRC 0436FA17
Accurately ripped (confidence 69) [0CA0EB5F]
Copy OK

All tracks accurately ripped

No errors occurred

End of status report

REM GENRE Alternative
REM DATE 2002
REM DISCID 6C08D909
REM COMMENT “ExactAudioCopy v0.99pb5”
PERFORMER “Gorillaz”
TITLE “G Sides”
FILE “01 – 19-2000 (Soulchild Remix).wav” WAVE
TRACK 01 AUDIO
TITLE “19-2000 (Soulchild Remix)”
PERFORMER “Gorillaz”
INDEX 01 00:00:00
TRACK 02 AUDIO
TITLE “Latin Simone (Que Pasa Contigo)”
PERFORMER “Gorillaz”
INDEX 00 03:27:57
FILE “02 – Latin Simone (Que Pasa Contigo).wav” WAVE
INDEX 01 00:00:00
FILE “03 – 19-2000 (The Wiseguys House Of Wisdom Remix).wav” WAVE
TRACK 03 AUDIO
TITLE “19-2000 (The Wiseguys House Of Wisdom Remix)”
PERFORMER “Gorillaz”
INDEX 01 00:00:00
TRACK 04 AUDIO
TITLE “The Sounder (Edit)”
PERFORMER “Gorillaz”
INDEX 00 07:13:55
FILE “04 – The Sounder (Edit).wav” WAVE
INDEX 01 00:00:00
TRACK 05 AUDIO
TITLE “Faust”
PERFORMER “Gorillaz”
INDEX 00 04:27:73
FILE “05 – Faust.wav” WAVE
INDEX 01 00:00:00
TRACK 06 AUDIO
TITLE “Clint Eastwood (Phi Life Cypher Version)”
PERFORMER “Gorillaz”
INDEX 00 03:49:55
FILE “06 – Clint Eastwood (Phi Life Cypher Version).wav” WAVE
INDEX 01 00:00:00
TRACK 07 AUDIO
TITLE “Ghost Train”
PERFORMER “Gorillaz”
INDEX 00 04:50:70
FILE “07 – Ghost Train.wav” WAVE
INDEX 01 00:00:00
TRACK 08 AUDIO
TITLE “Hip Albatross”
PERFORMER “Gorillaz”
INDEX 00 03:52:50
FILE “08 – Hip Albatross.wav” WAVE
INDEX 01 00:00:00
TRACK 09 AUDIO
TITLE “12D3”
PERFORMER “Gorillaz”
INDEX 00 02:41:48
FILE “09 – 12D3.wav” WAVE
INDEX 01 00:00:00

Leave a Reply

Your email address will not be published. Required fields are marked *

This site uses Akismet to reduce spam. Learn how your comment data is processed.